流氓兔214
一代宗师

[2022] [美国] [科幻] [纯净版] [BT下载][蜘蛛头][WebDL-MKV/1.88GB][中字][1080P][美2022锤哥主演犯罪科幻惊悚]

-->

海报



译  名 蜘蛛头/蜘蛛头监狱/逃离蜘蛛头
片  名 Spiderhead
年  代 2022
国  家 美国
类  别 犯罪/科幻/惊悚
语  言 英语
字  幕 中简/中繁/英文
评  分 5.4/10 from 15,498 users
链  接 https://www.imdb.com/title/tt9783600
文件大小 1.88 GB
片  长 106 Min
导  演 约瑟夫·科辛斯基 Joseph Kosinski
主  演 克里斯·海姆斯沃斯 Chris Hemsworth
     迈尔斯·特勒 Miles Teller
     朱尼·斯莫利特 Jurnee Smollett
     内森·琼斯 Nathan Jones
     泰丝·哈乌布里奇 Tess Haubrich
     查尔斯·帕内尔 Charles Parnell
     碧比·贝登科特 BeBe Bettencourt
     丹尼尔·博克 Daniel Booko
     安琪·米利肯 Angie Milliken
     乔伊·维埃拉 Joey Vieira

简介

  故事设定在近未来,那时候服刑的囚犯有机会通过自愿担任医疗实验对象的方式来减刑,主角是两个犯人,他们接受了情感扭转类药物实验,被迫与自己的过去作斗争,而他们所接受的实验和其机构被一个聪明的而有远见的人所管理着。

Video
Format                         : AVC
Format/Info                    : Advanced Video Codec
Format profile                 : [email protected]
Format settings                : CABAC / 3 Ref Frames
Format settings, CABAC         : Yes
Format settings, Reference fra : 3 frames
Codec ID                       : V_MPEG4/ISO/AVC
Duration                       : 1 h 47 min
Bit rate mode                  : Variable
Bit rate                       : 1 724 kb/s
Nominal bit rate               : 2 104 kb/s
Maximum bit rate               : 3 915 kb/s
Width                          : 1 920 pixels
Height                         : 1 080 pixels
Display aspect ratio           : 16:9
Frame rate mode                : Constant
Frame rate                     : 24.000 FPS
Color space                    : YUV
Chroma subsampling             : 4:2:0
Bit depth                      : 8 bits
Scan type                      : Progressive
Bits/(Pixel*Frame)             : 0.035
Stream size                    : 1.29 GiB (69%)

Audio
Format                         : E-AC-3 JOC
Format/Info                    : Enhanced AC-3 with Joint Object Coding
Commercial name                : Dolby Digital Plus with Dolby Atmos
Codec ID                       : A_EAC3
Duration                       : 1 h 47 min
Bit rate mode                  : Constant
Bit rate                       : 768 kb/s
Channel(s)                     : 6 channels
Channel layout                 : L R C LFE Ls Rs
Sampling rate                  : 48.0 kHz
Frame rate                     : 31.250 FPS (1536 SPF)
Compression mode               : Lossy
Stream size                    : 589 MiB (31%)
Service kind                   : Complete Main
Complexity index               : 16
Number of dynamic objects      : 15
Bed channel count              : 1 channel
Bed channel configuration      : LFE


截图



1 个附件 售价 大小 下载 时间

梦幻天堂·龙网(www.LWgod.org).蜘蛛头.蜘蛛头监狱.torrent 0 金币 38.89K 14133 次 14天前

#1楼
发帖时间:2022-06-22 18:13:57   |   回复数:4
ALLEN820213
隐世仙人♂
感谢楼主分享 !!!
14天前 #2楼
99yy
一代宗师
感谢楼主分享 !
14天前 #3楼
ak147
超凡入圣№
感谢大大分享
13天前 #4楼
寻寻觅觅
一派掌门
感谢楼主分享 !!!
12天前 #5楼
游客组