BILL36
隐世仙人♂

[2023] [大陆] [动画] [WEB-1080P] 恶魔法则[全24集][国语配音/中文字幕].Law.Devil.S01.2023.1080p.WEB-DL.H265.AAC-ZeroTV 8.58GB

-->

完整标题:恶魔法则[全24集][国语配音/中文字幕].Law.Devil.S01.2023.1080p.WEB-DL.H265.AAC-ZeroTV 8.58GB



◎标  题 恶魔法则
◎年  代 2023
◎产  地 中国大陆
◎类  别 动画 / 奇幻
◎语  言 汉语普通话
◎IMDb链接 https://www.imdb.com/title//
◎豆瓣链接 https://movie.douban.com/subject/35611554/
◎导  演 方翔 Xiang Fang
◎演  员 张杰 Jie Zhang

◎简  介
    罗兰大陆,群雄并起;魔法学徒,直面诸神。在魔法大陆上,预言中罗兰帝国千年的繁荣即将崩塌,而一个天选之人将像千年之前创建罗兰帝国的开国皇帝阿拉贡一样力挽狂澜。 帝国大将军杜雷伯爵的长子杜维身体羸弱,被家族遣回罗林平原。他误打误撞坠落荒岛与恶魔仆人做了交易,获得了无穷力量,一段传奇的王者历程就此开始…

部分资源为软字幕,移动端推荐播放器:MxPlayer,nPlayer,infuse ,其他播放器请自行尝试。

部分资源为软字幕,电脑端推荐播放器:PotPlayer,完美解码,KMPLAYER,其他播放器请自行尝试。

##### MediaInfo ######
General
Complete name : 恶魔法则.Law.Devil.S01E01.2023.1080p.WEB-DL.H265.AAC-ZeroTV.mp4
Duration : 19 min 25 s
Overall bit rate mode : Variable
Overall bit rate : 2 167 kb/s

Video
ID : 1
Format : HEVC
Format/Info : High Efficiency Video Coding
Format profile : Main@L4@Main
Codec ID : hev1
Codec ID/Info : High Efficiency Video Coding
Duration : 19 min 25 s
Source duration : 19 min 25 s
Bit rate : 2 067 kb/s
Width : 1 920 pixels
Height : 1 080 pixels
Display aspect ratio : 16:9
Frame rate mode : Variable
Frame rate : 25.000 FPS
Minimum frame rate : 24.993 FPS
Maximum frame rate : 25.007 FPS
Color space : YUV
Chroma subsampling : 4:2:0
Bit depth : 8 bits
Bits/(Pixel*Frame) : 0.040
Stream size : 287 MiB (95%)
Source stream size : 287 MiB (95%)
Codec configuration box : hvcC

Audio
ID : 2
Format : AAC LC
Format/Info : Advanced Audio Codec Low Complexity
Codec ID : mp4a-40-2
Duration : 19 min 25 s
Bit rate mode : Variable
Bit rate : 93.4 kb/s
Maximum bit rate : 97.0 kb/s
Channel(s) : 2 channels
Channel layout : L R
Sampling rate : 48.0 kHz
Frame rate : 46.875 FPS (1024 SPF)
Compression mode : Lossy
Stream size : 13.0 MiB (4%)
Default : Yes
Alternate group : 1


点击图片可查看大图

软字幕无法在截图上展现,HDR版本/杜比视界版本截图会出现颜色异常,请使用支持的设备播放!



1 个附件 售价 大小 下载 时间

Law.Devil.S01.2023.1080p.WEB-DL.H265.AAC-ZeroTV[1LOU.ME].torrent 0 金币 26.59K 1351 次 1月前

#1楼
发帖时间:2024-02-23 20:31:00   |   回复数:0
游客组