Asuka601
隐世仙人♂

[2018] [大陆] [动作] [WEB-4K] 金鸡大劫案[60帧率版本][国语音轨/中文字幕].Deadal.Treasure.2018.60FPS.2160p.WEB-DL.H265.10bit.AAC-

-->

完整标题:金鸡大劫案[60帧率版本][国语音轨/中文字幕].Deadal.Treasure.2018.60FPS.2160p.WEB-DL.H265.10bit.AAC-GPTHD 14.44GB



◎标  题 金鸡大劫案
◎译  名 Deadal Treasure
◎年  代 2018
◎产  地 中国大陆
◎类  别 动作 / 犯罪 / 冒险
◎语  言 汉语普通话
◎上映日期 2018-03-17(中国大陆)
◎IMDb链接 https://www.imdb.com/title//
◎豆瓣链接 https://movie.douban.com/subject/30171313/
◎编  剧 何荣欣 Brack Xin
◎演  员 阮圣文 Shengwen Ruan
      徐少强 Norman Chu
      谈莉娜 Renata Tan
      宗峰岩 Fengyan Zong
      何傲儿 Lily Ho

◎简  介
    民国元年,军阀割据,局势动荡,各方势力蠢蠢欲动,南国通城大恶霸——金三生,勾结官商,大肆敛财欺压百姓。与此同时,一帮神秘的正义之士悄悄潜入通城,为了寻得改变国家命运的“藏宝图”。他们几经周折,劫富济贫,与金三生展开激烈斗争,国宝大金鸡的意外出现,整个复仇计划浮出水面,宝图的秘密层出不穷。这一场关乎私人恩怨与所有百姓命运的厮杀,最终走向了无法挽回的结局……

点击图片可查看大图

软字幕无法在截图上展现,HDR版本/杜比视界版本截图会出现颜色异常,请使用支持的设备播放!

##### MediaInfo ######
General
Complete name : 金鸡大劫案.Deadal.Treasure.2018.60FPS.2160p.WEB-DL.H265.10bit.AAC-GPTHD.mp4
Duration : 1 h 21 min
Overall bit rate : 25.3 Mb/s

Video
ID : 1
Format : HEVC
Format/Info : High Efficiency Video Coding
Format profile : Main [email protected]@Main
Codec ID : hev1
Codec ID/Info : High Efficiency Video Coding
Duration : 1 h 21 min
Bit rate : 25.0 Mb/s
Width : 3 840 pixels
Height : 1 632 pixels
Display aspect ratio : 2.35:1
Frame rate mode : Variable
Frame rate : 60.000 FPS
Minimum frame rate : 59.960 FPS
Maximum frame rate : 60.040 FPS
Color space : YUV
Chroma subsampling : 4:2:0
Bit depth : 10 bits
Bits/(Pixel*Frame) : 0.066
Stream size : 14.3 GiB (99%)
Color range : Limited
Color primaries : BT.709
Transfer characteristics : BT.709
Matrix coefficients : BT.709
Codec configuration box : hvcC

Audio
ID : 2
Format : AAC LC
Format/Info : Advanced Audio Codec Low Complexity
Codec ID : mp4a-40-2
Duration : 1 h 21 min
Bit rate mode : Constant
Bit rate : 256 kb/s
Channel(s) : 2 channels
Channel layout : L R
Sampling rate : 44.1 kHz
Frame rate : 43.066 FPS (1024 SPF)
Compression mode : Lossy
Stream size : 150 MiB (1%)
Default : Yes
Alternate group : 1


部分资源为软字幕,移动端推荐播放器:MxPlayer,nPlayer,infuse ,其他播放器请自行尝试。

部分资源为软字幕,电脑端推荐播放器:PotPlayer,完美解码,KMPLAYER,其他播放器请自行尝试。



1 个附件 售价 大小 下载 时间

Deadal.Treasure.2018.60FPS.2160p.WEB-DL.H265.10bit.AAC-GPTHD[1LOU.ME].torrent 0 金币 39.21K 1092 次 1月前

#1楼
发帖时间:2024-02-23 20:11:46   |   回复数:0
游客组