Asuka601
隐世仙人♂

[2018] [大陆] [剧情] [WEB-4K] 边境毒战[国语音轨/中文字幕].Border.Drugs.War.2018.2160p.WEB-DL.H265.10bit.AAC-GPTHD 11.56GB

-->

完整标题:边境毒战[国语音轨/中文字幕].Border.Drugs.War.2018.2160p.WEB-DL.H265.10bit.AAC-GPTHD 11.56GB



◎标  题 边境毒战
◎年  代 2018
◎产  地 中国大陆
◎类  别 剧情 / 犯罪 / 运动
◎语  言 汉语普通话
◎上映日期 2018-03-14(中国大陆)
◎IMDb链接 https://www.imdb.com/title//
◎豆瓣链接 https://movie.douban.com/subject/30161278/
◎片  长 81分钟
◎演  员 赵俊珺 Junjun Zhao
      申秋香 Qiuxiang Shen
      姬云潇 Yunxiao Ji
      朱雀 Rosefinch
      魏巍 Wei Wei

◎简  介
    缉毒警察王震在一次行动中失误导致师父牺牲,一蹶不振, 被上司老钟放假,去云南边境找兄弟小强铁林散心,却无意中卷入借车运毒的漩涡。王震跟上级申请任务后,利用毒贩藏在车中的毒品作为敲门砖,成功打入孟叔贩毒集团内部,却发现此毒品集团正是师傅生前最想打掉的毒瘤。刚从国外回来孟叔女儿霜梓在与王震的相处中,爱上了王震,却也为王震带来最大的对手—孟叔养子K仔。爱慕霜梓的K仔更视王震为其上位的最大威胁,后与越南毒品供货商虎哥的情妇阿香合作,在孟叔带王震前往越南与虎哥谈合作时,杀害孟叔和虎哥,王震千钧一发逃离,却被实为毒品大佬鬼爷棋子的K仔和阿香联手诬陷。王震归来后,K仔追杀王震未果,却抓走了小强铁林,捅伤了小强女友菲菲。霜梓为救出小强与铁林,答应与K仔结婚。王震与警方联络后制定计划,与婚礼现场收网。经过惊心动魄的打斗枪战后,警方终于将K仔以及大量毒贩当场抓获,霜梓却在抓捕过程中不幸遇难。在任务成功后,王震带着霜梓赠送的护身符,独自离开边境小镇。

点击图片可查看大图

软字幕无法在截图上展现,HDR版本/杜比视界版本截图会出现颜色异常,请使用支持的设备播放!

##### MediaInfo ######
General
Complete name : 边境毒战.Border.Drugs.War.2018.2160p.WEB-DL.H265.10bit.AAC-GPTHD.mp4
Duration : 1 h 22 min
Overall bit rate : 20.1 Mb/s

Video
ID : 1
Format : HEVC
Format/Info : High Efficiency Video Coding
Format profile : Main [email protected]@Main
Codec ID : hev1
Codec ID/Info : High Efficiency Video Coding
Duration : 1 h 22 min
Bit rate : 19.9 Mb/s
Width : 3 840 pixels
Height : 1 640 pixels
Display aspect ratio : 2.35:1
Frame rate mode : Variable
Frame rate : 24.000 FPS
Minimum frame rate : 23.994 FPS
Maximum frame rate : 24.006 FPS
Color space : YUV
Chroma subsampling : 4:2:0
Bit depth : 10 bits
Bits/(Pixel*Frame) : 0.132
Stream size : 11.4 GiB (99%)
Color range : Limited
Color primaries : BT.709
Transfer characteristics : BT.709
Matrix coefficients : BT.709
Codec configuration box : hvcC

Audio
ID : 2
Format : AAC LC
Format/Info : Advanced Audio Codec Low Complexity
Codec ID : mp4a-40-2
Duration : 1 h 22 min
Bit rate mode : Constant
Bit rate : 192 kb/s
Channel(s) : 2 channels
Channel layout : L R
Sampling rate : 44.1 kHz
Frame rate : 43.066 FPS (1024 SPF)
Compression mode : Lossy
Stream size : 113 MiB (1%)
Default : Yes
Alternate group : 1


部分资源为软字幕,移动端推荐播放器:MxPlayer,nPlayer,infuse ,其他播放器请自行尝试。

部分资源为软字幕,电脑端推荐播放器:PotPlayer,完美解码,KMPLAYER,其他播放器请自行尝试。



1 个附件 售价 大小 下载 时间

Border.Drugs.War.2018.2160p.WEB-DL.H265.10bit.AAC-GPTHD[1LOU.ME].torrent 0 金币 32.00K 819 次 1月前

#1楼
发帖时间:2024-02-23 20:10:00   |   回复数:0
游客组