Asuka601
隐世仙人♂

[2022] [欧美] [剧情] [BD-1080P] 永恒的女儿[简繁英字幕].The.Eternal.Daughter.2022.1080p.BluRay.x264.DTS-SONYHD 9.26GB

-->

完整标题:永恒的女儿[简繁英字幕].The.Eternal.Daughter.2022.1080p.BluRay.x264.DTS-SONYHD 9.26GB



◎标  题 永恒的女儿
◎译  名 庄园魅影(台)
◎片  名 The Eternal Daughter
◎年  代 2022
◎产  地 美国 / 英国
◎类  别 剧情 / 悬疑
◎语  言 英语
◎上映日期 2022-09-06(威尼斯电影节) / 2022-12-02(美国)
◎IMDb评分 6/10 (5400人评价)
◎IMDb链接 https://www.imdb.com/title/tt13874422/
◎豆瓣评分 5.6/10 (1387人评价)
◎豆瓣链接 https://movie.douban.com/subject/35332885/
◎片  长 96分钟
◎导  演 乔安娜·霍格 Joanna Hogg
◎编  剧 乔安娜·霍格 Joanna Hogg
◎演  员 蒂尔达·斯文顿 Tilda Swinton
      卡尔利-索菲娅·戴维斯 Carly-Sophia Davies
      津尼娅·戴维斯-库克 Zinnia Davies-Cooke
      奥古斯特·乔希 August Joshi
      路易斯 Louis
      约瑟夫·迈德尔 Joseph Mydell
      阿尔菲·桑凯-格林 Alfie Sankey-Green

◎简  介
    蒂尔达·斯文顿的秘密主演新片曝光:她于疫情期间在威尔士拍摄了一部鬼故事片《永恒的女儿》(The Eternal Daughter),继《纪念品》后再次与导演乔安娜·霍格合作。   A24最新拿下该片全球版权,已拍完进入后期制作阶段,讲述一个中年女子与年迈母亲回到她们以前的家——一个旧日的大庄园,如今变成了一间空荡荡的酒店,充满神秘,母女俩将必须面对一些埋藏了很长时间的秘密。   该片演员阵容还包括约瑟夫·迈德尔、卡莉·戴维斯和阿尔菲·桑基·格林,由Element Pictures(《宠儿》《房间》)和JWH Films(《纪念品》)制作,BBC影业也加入,马丁·斯科塞斯担任执行制片人。

##### MediaInfo ######
General
Unique ID : 59989819649317677281881472561276637479 (0x2D219E76EBF4408D1A65157D8D09D127)
Complete name : The.Eternal.Daughter.2022.1080p.BluRay.x264.DTS-SONYHD.mkv
Duration : 1 h 35 min
Overall bit rate : 13.8 Mb/s

Video
ID : 1
Format : AVC
Format/Info : Advanced Video Codec
Format profile : [email protected]
Format settings : CABAC / 4 Ref Frames
Format settings, CABAC : Yes
Format settings, Reference frames : 4 frames
Codec ID : V_MPEG4/ISO/AVC
Duration : 1 h 35 min
Bit rate : 12.2 Mb/s
Width : 1 800 pixels
Height : 1 080 pixels
Display aspect ratio : 5:3
Frame rate mode : Constant
Frame rate : 23.976 (24000/1001) FPS
Color space : YUV
Chroma subsampling : 4:2:0
Bit depth : 8 bits
Scan type : Progressive
Bits/(Pixel*Frame) : 0.263
Stream size : 8.21 GiB (89%)
Writing library : x264 core 164 r3107+55M 1028c06 t_mod_New [(8 & 10)-bit@all X86_64]
Encoding settings : cabac=1 / ref=4 / deblock=1:-3:-3 / analyse=0x3:0x133 / me=umh / subme=11 / psy=1 / fade_compensate=0.00 / psy_rd=1.00:0.00 / mixed_ref=1 / me_range=48 / chroma_me=1 / trellis=2 / 8x8dct=1 / cqm=0 / deadzone=21,11 / fast_pskip=0 / chroma_qp_offset=-3 / threads=34 / lookahead_threads=8 / sliced_threads=0 / nr=0 / decimate=0 / interlaced=0 / bluray_compat=0 / constrained_intra=0 / fgo=0 / bframes=11 / b_pyramid=2 / b_adapt=2 / b_bias=0 / direct=3 / weightb=1 / open_gop=0 / weightp=2 / keyint=240 / keyint_min=1 / scenecut=40 / intra_refresh=0 / rc_lookahead=72 / rc=crf / mbtree=0 / crf=19.5000 / qcomp=0.60 / qpmin=0:0:0 / qpmax=69:69:69 / qpstep=4 / vbv_maxrate=62500 / vbv_bufsize=78125 / crf_max=0.0 / nal_hrd=none / filler=0 / ip_ratio=1.40 / pb_ratio=1.30 / aq=3:0.80 / aq-sensitivity=10.00 / aq-factor=1.00:1.00:1.00 / aq2=0 / aq3=0
Language : English
Default : Yes
Forced : No

Audio
ID : 2
ID in the original source medium : 4352 (0x1100)
Format : DTS
Format/Info : Digital Theater Systems
Codec ID : A_DTS
Duration : 1 h 35 min
Bit rate mode : Constant
Bit rate : 1 509 kb/s
Channel(s) : 6 channels
Channel layout : C L R Ls Rs LFE
Sampling rate : 48.0 kHz
Frame rate : 93.750 FPS (512 SPF)
Bit depth : 24 bits
Compression mode : Lossy
Stream size : 1.01 GiB (11%)
Language : English
Default : Yes
Forced : No
Original source medium : Blu-ray

Text #1
ID : 3
ID in the original source medium : 4609 (0x1201)
Format : PGS
Muxing mode : zlib
Codec ID : S_HDMV/PGS
Codec ID/Info : Picture based subtitle format used on BDs/HD-DVDs
Duration : 1 h 31 min
Bit rate : 35.6 kb/s
Frame rate : 0.253 FPS
Count of elements : 1390
Stream size : 23.4 MiB (0%)
Title : chs&eng
Language : Chinese
Default : Yes
Forced : No
Original source medium : Blu-ray

Text #2
ID : 4
ID in the original source medium : 4610 (0x1202)
Format : PGS
Muxing mode : zlib
Codec ID : S_HDMV/PGS
Codec ID/Info : Picture based subtitle format used on BDs/HD-DVDs
Duration : 1 h 31 min
Bit rate : 35.7 kb/s
Frame rate : 0.253 FPS
Count of elements : 1390
Stream size : 23.4 MiB (0%)
Title : cht&eng
Language : Chinese
Default : No
Forced : No
Original source medium : Blu-ray

Text #3
ID : 5
ID in the original source medium : 4611 (0x1203)
Format : PGS
Muxing mode : zlib
Codec ID : S_HDMV/PGS
Codec ID/Info : Picture based subtitle format used on BDs/HD-DVDs
Duration : 1 h 31 min
Bit rate : 21.5 kb/s
Frame rate : 0.253 FPS
Count of elements : 1390
Stream size : 14.1 MiB (0%)
Title : chs
Language : Chinese
Default : No
Forced : No
Original source medium : Blu-ray

Text #4
ID : 6
ID in the original source medium : 4612 (0x1204)
Format : PGS
Muxing mode : zlib
Codec ID : S_HDMV/PGS
Codec ID/Info : Picture based subtitle format used on BDs/HD-DVDs
Duration : 1 h 31 min
Bit rate : 21.6 kb/s
Frame rate : 0.253 FPS
Count of elements : 1390
Stream size : 14.2 MiB (0%)
Title : cht
Language : Chinese
Default : No
Forced : No
Original source medium : Blu-ray

Text #5
ID : 7
ID in the original source medium : 4608 (0x1200)
Format : PGS
Muxing mode : zlib
Codec ID : S_HDMV/PGS
Codec ID/Info : Picture based subtitle format used on BDs/HD-DVDs
Duration : 1 h 30 min
Bit rate : 29.4 kb/s
Frame rate : 0.385 FPS
Count of elements : 2090
Stream size : 19.0 MiB (0%)
Title : eng
Language : English
Default : No
Forced : No
Original source medium : Blu-ray

Menu
00:00:00.000 : en:Chapter 01
00:07:52.013 : en:Chapter 02
00:14:38.669 : en:Chapter 03
00:24:45.150 : en:Chapter 04
00:34:28.107 : en:Chapter 05
00:39:36.916 : en:Chapter 06
00:48:29.114 : en:Chapter 07
00:58:29.923 : en:Chapter 08
01:04:19.730 : en:Chapter 09
01:11:07.221 : en:Chapter 10
01:20:59.229 : en:Chapter 11
01:27:28.034 : en:Chapter 12


部分资源为软字幕,移动端推荐播放器:MxPlayer,nPlayer,infuse ,其他播放器请自行尝试。

部分资源为软字幕,电脑端推荐播放器:PotPlayer,完美解码,KMPLAYER,其他播放器请自行尝试。



1 个附件 售价 大小 下载 时间

The.Eternal.Daughter.2022.1080p.BluRay.x264.DTS-SONYHD[1LOU.ME].torrent 0 金币 26.23K 784 次 1月前

#1楼
发帖时间:2024-02-23 19:58:48   |   回复数:0
游客组