Asuka601
隐世仙人♂

[更 早] [台湾] [剧情] [BD-1080P] 风柜来的人[国语音轨/简繁英字幕].The.Boys.From.Fengkuei.1983.1080p.BluRay.x265.10bit.FLAC.2.0-S

-->

完整标题:风柜来的人[国语音轨/简繁英字幕].The.Boys.From.Fengkuei.1983.1080p.BluRay.x265.10bit.FLAC.2.0-SONYHD 6.67GB



◎标  题 风柜来的人
◎译  名 The Boys From Fengkuei / All the Youthful Days
◎片  名 風櫃來的人
◎年  代 1983
◎产  地 中国台湾
◎类  别 剧情
◎语  言 汉语普通话 / 闽南语
◎上映日期 1983(中国台湾) / 1990-07-21(日本)
◎IMDb评分 7.3/10 (1835人评价)
◎IMDb链接 https://www.imdb.com/title/tt0085533/
◎豆瓣评分 8.4/10 (50215人评价)
◎豆瓣链接 https://movie.douban.com/subject/1299436/
◎片  长 100分钟
◎导  演 侯孝贤 Hsiao-hsien Hou
◎编  剧 朱天文 Tien-wen Chu
◎演  员 钮承泽 Doze Niu Chen-Zer
      张世 Shih Chang
      庹宗华 Chung-Hua Tou
      林秀玲 Hsiu-Ling Lin
      杨丽音 Li-Yin Yang
      张纯芳 Chun-Fang Chang
      陈博正 Bor Jing Chan
      侯孝贤 Hsiao-hsien Hou
      陈淑芳 Shu-Fang Chen
      颜正国 Ching-kuo Yan

◎简  介
    阿清(钮承泽)、阿荣(张世)等男孩生于风柜长于风柜,他们在高中毕业后等待征兵的日子里百无聊赖,每日通过赌博、打架、看白戏等形式来挥霍过量的精力。因为一次较严重的打架事件,也因对周遭环境的厌倦,他们怀揣几颗忐忑的心,离开风柜来到高雄。起始,自然只能如迷途羔羊般,在大都市的五光十色中乱撞。   在阿荣姐姐的帮助下,他们有了暂时的栖身处。而安稳下之后,阿清和阿荣因渐形成不同的世界观产生分歧。一封家书勾起阿清有关父亲的复杂回忆,加上眼见爱慕对象小杏(林秀玲)与男友(庹宗华)情感变故,阿清沉默了下来。

##### MediaInfo ######
General
Unique ID : 183621488356038678056482395616311473961 (0x8A2436585C76B65E099ED3CE97137729)
Complete name : The.Boys.From.Fengkuei.1983.1080p.BluRay.x265.10bit.FLAC.2.0-SONYHD.mkv
Duration : 1 h 39 min
Overall bit rate mode : Variable
Overall bit rate : 9 575 kb/s

Video
ID : 1
Format : HEVC
Format/Info : High Efficiency Video Coding
Format profile : Main 10@L5@Main
Codec ID : V_MPEGH/ISO/HEVC
Duration : 1 h 39 min
Bit rate : 9 261 kb/s
Width : 1 920 pixels
Height : 1 036 pixels
Display aspect ratio : 1.85:1
Frame rate mode : Constant
Frame rate : 23.976 (24000/1001) FPS
Color space : YUV
Chroma subsampling : 4:2:0
Bit depth : 10 bits
Bits/(Pixel*Frame) : 0.194
Stream size : 6.45 GiB (97%)
Writing library : x265 3.5g2b25c9ba0+45:[Windows][GCC 10.2.0][64 bit] Yuuki 10bit+8bit+12bit
Encoding settings : rc=crf / crf=19.4700 / qcomp=0.60 / qpstep=4 / stats-write=0 / stats-read=0 / no-lossless / no-cu-lossless / aq-mode=3 / aq-strength=0.90 / cbqpoffs=0 / crqpoffs=0 / ipratio=1.40 / pbratio=1.30 / psy-rd=2.00 / psy-rdoq=0.00 / deblock=0:0 / ref=6 / limit-refs=1 / no-limit-modes / bframes=8 / b-adapt=2 / bframe-bias=0 / b-pyramid / b-intra / weightp / weightb / min-keyint=24 / max-keyint=240 / rc-lookahead=24 / gop-lookahead=0 / scenecut=40 / hist-scenecut=0 / radl=0 / max-cu-size=64 / min-cu-size=8 / me=3 / subme=7 / merange=48 / rdoq-level=0 / rd=4 / rdpenalty=0 / dynamic-rd=0.00 / no-rd-refine / ----- / cutree / sao / no-rect / no-amp / no-open-gop / wpp / no-pmode / no-pme / no-psnr / no-ssim / nr-intra=0 / nr-inter=0 / no-constrained-intra / no-strong-intra-smoothing / max-tu-size=32 / tu-inter-depth=1 / tu-intra-depth=1 / limit-tu=0 / qg-size=32 / qpmax=69 / qpmin=0 / ----- / cpuid=1111039 / frame-threads=5 / numa-pools=+ / log-level=2 / input-csp=1 / input-res=1920x1036 / interlace=0 / level-idc=0 / high-tier=1 / uhd-bd=0 / no-allow-non-conformance / repeat-headers / aud / no-hrd / info / hash=0 / no-temporal-layers / lookahead-slices=0 / no-splice / no-intra-refresh / no-ssim-rd / signhide / no-tskip / max-merge=3 / temporal-mvp / no-frame-dup / no-hme / no-analyze-src-pics / no-sao-non-deblock / selective-sao=4 / early-skip / rskip / no-fast-intra / no-tskip-fast / no-splitrd-skip / zone-count=0 / no-strict-cbr / no-rc-grain / no-const-vbv / sar=0 / overscan=0 / videoformat=5 / range=0 / colorprim=2 / transfer=2 / colormatrix=2 / chromaloc=0 / display-window=0 / cll=0,0 / min-luma=0 / max-luma=1023 / log2-max-poc-lsb=8 / vui-timing-info / vui-hrd-info / slices=1 / no-opt-qp-pps / no-opt-ref-list-length-pps / no-multi-pass-opt-rps / scenecut-bias=0.05 / hist-threshold=0.03 / no-opt-cu-delta-qp / no-aq-motion / no-hdr10 / no-hdr10-opt / no-dhdr10-opt / no-idr-recovery-sei / analysis-reuse-level=0 / analysis-save-reuse-level=0 / analysis-load-reuse-level=0 / scale-factor=0 / refine-intra=0 / refine-inter=0 / refine-mv=1 / refine-ctu-distortion=0 / no-limit-sao / ctu-info=0 / no-lowpass-dct / refine-analysis-type=0 / copy-pic=1 / max-ausize-factor=1.0 / no-dynamic-refine / no-single-sei / no-hevc-aq / no-svt / no-field / qp-adaptation-range=1.00 / scenecut-aware-qp=0conformance-window-offsets / right=0 / bottom=0 / decoder-max-rate=0 / no-vbv-live-multi-pass
Default : Yes
Forced : No

Audio
ID : 2
Format : FLAC
Format/Info : Free Lossless Audio Codec
Codec ID : A_FLAC
Duration : 1 h 39 min
Bit rate mode : Variable
Bit rate : 296 kb/s
Channel(s) : 2 channels
Channel layout : L R
Sampling rate : 48.0 kHz
Frame rate : 11.719 FPS (4096 SPF)
Bit depth : 16 bits
Compression mode : Lossless
Stream size : 211 MiB (3%)
Title : Chinese
Writing library : libFLAC 1.2.1 (UTC 2007-09-17)
Language : Chinese
Default : Yes
Forced : No

Text #1
ID : 3
ID in the original source medium : 4609 (0x1201)
Format : PGS
Muxing mode : zlib
Codec ID : S_HDMV/PGS
Codec ID/Info : Picture based subtitle format used on BDs/HD-DVDs
Duration : 1 h 38 min
Bit rate : 11.6 kb/s
Frame rate : 0.242 FPS
Count of elements : 1429
Stream size : 8.19 MiB (0%)
Title : chs
Language : Chinese
Default : Yes
Forced : No
Original source medium : Blu-ray

Text #2
ID : 4
ID in the original source medium : 4610 (0x1202)
Format : PGS
Muxing mode : zlib
Codec ID : S_HDMV/PGS
Codec ID/Info : Picture based subtitle format used on BDs/HD-DVDs
Duration : 1 h 38 min
Bit rate : 11.8 kb/s
Frame rate : 0.242 FPS
Count of elements : 1429
Stream size : 8.29 MiB (0%)
Title : cht
Language : Chinese
Default : No
Forced : No
Original source medium : Blu-ray

Text #3
ID : 5
ID in the original source medium : 4608 (0x1200)
Format : PGS
Muxing mode : zlib
Codec ID : S_HDMV/PGS
Codec ID/Info : Picture based subtitle format used on BDs/HD-DVDs
Duration : 1 h 37 min
Bit rate : 17.8 kb/s
Frame rate : 0.231 FPS
Count of elements : 1352
Stream size : 12.4 MiB (0%)
Title : eng
Language : English
Default : No
Forced : No
Original source medium : Blu-ray

Menu
00:00:00.000 : en:Chapter 01
00:09:18.015 : en:Chapter 02
00:18:59.680 : en:Chapter 03
00:30:04.385 : en:Chapter 04
00:37:38.756 : en:Chapter 05
00:50:19.099 : en:Chapter 06
01:01:51.666 : en:Chapter 07
01:09:22.867 : en:Chapter 08
01:21:07.112 : en:Chapter 09
01:30:40.143 : en:Chapter 10


部分资源为软字幕,移动端推荐播放器:MxPlayer,nPlayer,infuse ,其他播放器请自行尝试。

部分资源为软字幕,电脑端推荐播放器:PotPlayer,完美解码,KMPLAYER,其他播放器请自行尝试。



1 个附件 售价 大小 下载 时间

The.Boys.From.Fengkuei.1983.1080p.BluRay.x265.10bit.FLAC.2.0-SONYHD[1LOU.ME].torrent 0 金币 19.78K 1393 次 1月前

#1楼
发帖时间:2024-02-23 19:56:33   |   回复数:1
jokingcheung
超凡入圣№
谢谢分享
1月前 #2楼
游客组