Asuka601
隐世仙人♂

[更 早] [台湾] [剧情] [BD-1080P] 风柜来的人[国语音轨/简繁英字幕].The.Boys.From.Fengkuei.1983.1080p.BluRay.x264.FLAC.2.0-SONYHD

-->

完整标题:风柜来的人[国语音轨/简繁英字幕].The.Boys.From.Fengkuei.1983.1080p.BluRay.x264.FLAC.2.0-SONYHD 10.06GB



◎标  题 风柜来的人
◎译  名 The Boys From Fengkuei / All the Youthful Days
◎片  名 風櫃來的人
◎年  代 1983
◎产  地 中国台湾
◎类  别 剧情
◎语  言 汉语普通话 / 闽南语
◎上映日期 1983(中国台湾) / 1990-07-21(日本)
◎IMDb评分 7.3/10 (1835人评价)
◎IMDb链接 https://www.imdb.com/title/tt0085533/
◎豆瓣评分 8.4/10 (50215人评价)
◎豆瓣链接 https://movie.douban.com/subject/1299436/
◎片  长 100分钟
◎导  演 侯孝贤 Hsiao-hsien Hou
◎编  剧 朱天文 Tien-wen Chu
◎演  员 钮承泽 Doze Niu Chen-Zer
      张世 Shih Chang
      庹宗华 Chung-Hua Tou
      林秀玲 Hsiu-Ling Lin
      杨丽音 Li-Yin Yang
      张纯芳 Chun-Fang Chang
      陈博正 Bor Jing Chan
      侯孝贤 Hsiao-hsien Hou
      陈淑芳 Shu-Fang Chen
      颜正国 Ching-kuo Yan

◎简  介
    阿清(钮承泽)、阿荣(张世)等男孩生于风柜长于风柜,他们在高中毕业后等待征兵的日子里百无聊赖,每日通过赌博、打架、看白戏等形式来挥霍过量的精力。因为一次较严重的打架事件,也因对周遭环境的厌倦,他们怀揣几颗忐忑的心,离开风柜来到高雄。起始,自然只能如迷途羔羊般,在大都市的五光十色中乱撞。   在阿荣姐姐的帮助下,他们有了暂时的栖身处。而安稳下之后,阿清和阿荣因渐形成不同的世界观产生分歧。一封家书勾起阿清有关父亲的复杂回忆,加上眼见爱慕对象小杏(林秀玲)与男友(庹宗华)情感变故,阿清沉默了下来。

##### MediaInfo ######
General
Unique ID : 261746234172067412737300936572708288463 (0xC4EA7DB3A27AF272C652838E9F9777CF)
Complete name : The.Boys.From.Fengkuei.1983.1080p.BluRay.x264.FLAC.2.0-SONYHD.mkv
Duration : 1 h 39 min
Overall bit rate mode : Variable
Overall bit rate : 14.5 Mb/s

Video
ID : 1
Format : AVC
Format/Info : Advanced Video Codec
Format profile : [email protected]
Format settings : CABAC / 4 Ref Frames
Format settings, CABAC : Yes
Format settings, Reference frames : 4 frames
Codec ID : V_MPEG4/ISO/AVC
Duration : 1 h 39 min
Bit rate : 14.1 Mb/s
Width : 1 920 pixels
Height : 1 036 pixels
Display aspect ratio : 1.85:1
Frame rate mode : Constant
Frame rate : 23.976 (24000/1001) FPS
Color space : YUV
Chroma subsampling : 4:2:0
Bit depth : 8 bits
Scan type : Progressive
Bits/(Pixel*Frame) : 0.297
Stream size : 9.84 GiB (98%)
Writing library : x264 core 164 r3085+55M 938b6d0 t_mod_New [(8 & 10)-bit@all X86_64]
Encoding settings : cabac=1 / ref=4 / deblock=1:-3:-3 / analyse=0x3:0x133 / me=umh / subme=11 / psy=1 / fade_compensate=0.00 / psy_rd=1.00:0.00 / mixed_ref=1 / me_range=48 / chroma_me=1 / trellis=2 / 8x8dct=1 / cqm=0 / deadzone=21,11 / fast_pskip=0 / chroma_qp_offset=-3 / threads=32 / lookahead_threads=8 / sliced_threads=0 / nr=0 / decimate=0 / interlaced=0 / bluray_compat=0 / constrained_intra=0 / fgo=0 / bframes=11 / b_pyramid=2 / b_adapt=2 / b_bias=0 / direct=3 / weightb=1 / open_gop=0 / weightp=2 / keyint=240 / keyint_min=1 / scenecut=40 / intra_refresh=0 / rc_lookahead=72 / rc=crf / mbtree=0 / crf=20.0500 / qcomp=0.60 / qpmin=0:0:0 / qpmax=69:69:69 / qpstep=4 / vbv_maxrate=62500 / vbv_bufsize=78125 / crf_max=0.0 / nal_hrd=none / filler=0 / ip_ratio=1.40 / pb_ratio=1.30 / aq=3:0.70 / aq-sensitivity=10.00 / aq-factor=1.00:1.00:1.00 / aq2=0 / aq3=0
Default : Yes
Forced : No

Audio
ID : 2
Format : FLAC
Format/Info : Free Lossless Audio Codec
Codec ID : A_FLAC
Duration : 1 h 39 min
Bit rate mode : Variable
Bit rate : 296 kb/s
Channel(s) : 2 channels
Channel layout : L R
Sampling rate : 48.0 kHz
Frame rate : 11.719 FPS (4096 SPF)
Bit depth : 16 bits
Compression mode : Lossless
Stream size : 211 MiB (2%)
Title : Chinese
Writing library : libFLAC 1.2.1 (UTC 2007-09-17)
Language : Chinese
Default : Yes
Forced : No

Text #1
ID : 3
ID in the original source medium : 4609 (0x1201)
Format : PGS
Muxing mode : zlib
Codec ID : S_HDMV/PGS
Codec ID/Info : Picture based subtitle format used on BDs/HD-DVDs
Duration : 1 h 38 min
Bit rate : 11.6 kb/s
Frame rate : 0.242 FPS
Count of elements : 1429
Stream size : 8.19 MiB (0%)
Title : chs
Language : Chinese
Default : Yes
Forced : No
Original source medium : Blu-ray

Text #2
ID : 4
ID in the original source medium : 4610 (0x1202)
Format : PGS
Muxing mode : zlib
Codec ID : S_HDMV/PGS
Codec ID/Info : Picture based subtitle format used on BDs/HD-DVDs
Duration : 1 h 38 min
Bit rate : 11.8 kb/s
Frame rate : 0.242 FPS
Count of elements : 1429
Stream size : 8.29 MiB (0%)
Title : cht
Language : Chinese
Default : No
Forced : No
Original source medium : Blu-ray

Text #3
ID : 5
ID in the original source medium : 4608 (0x1200)
Format : PGS
Muxing mode : zlib
Codec ID : S_HDMV/PGS
Codec ID/Info : Picture based subtitle format used on BDs/HD-DVDs
Duration : 1 h 37 min
Bit rate : 17.8 kb/s
Frame rate : 0.231 FPS
Count of elements : 1352
Stream size : 12.4 MiB (0%)
Title : eng
Language : English
Default : No
Forced : No
Original source medium : Blu-ray

Menu
00:00:00.000 : en:Chapter 01
00:09:18.015 : en:Chapter 02
00:18:59.680 : en:Chapter 03
00:30:04.385 : en:Chapter 04
00:37:38.756 : en:Chapter 05
00:50:19.099 : en:Chapter 06
01:01:51.666 : en:Chapter 07
01:09:22.867 : en:Chapter 08
01:21:07.112 : en:Chapter 09
01:30:40.143 : en:Chapter 10


部分资源为软字幕,移动端推荐播放器:MxPlayer,nPlayer,infuse ,其他播放器请自行尝试。

部分资源为软字幕,电脑端推荐播放器:PotPlayer,完美解码,KMPLAYER,其他播放器请自行尝试。



1 个附件 售价 大小 下载 时间

The.Boys.From.Fengkuei.1983.1080p.BluRay.x264.FLAC.2.0-SONYHD[1LOU.ME].torrent 0 金币 28.27K 952 次 1月前

#1楼
发帖时间:2024-02-23 19:55:46   |   回复数:1
jokingcheung
超凡入圣№
谢谢分享
1月前 #2楼
游客组