Asuka601
隐世仙人♂

[2022] [欧美] [剧情] [BD-1080P] 卧床休养期[简繁英字幕].Bed.Rest.2022.1080p.BluRay.x264.DTS-SONYHD 8.72GB

-->

完整标题:卧床休养期[简繁英字幕].Bed.Rest.2022.1080p.BluRay.x264.DTS-SONYHD 8.72GB



◎标  题 卧床休养期
◎译  名 鬼臥床(台)
◎片  名 Bed Rest
◎年  代 2022
◎产  地 美国
◎类  别 剧情 / 悬疑 / 恐怖
◎语  言 英语
◎上映日期 2022-11-30(阿联酋) / 2022-12-07(美国)
◎IMDb评分 5.1/10 (3244人评价)
◎IMDb链接 https://www.imdb.com/title/tt4896168/
◎豆瓣评分 5.1/10 (336人评价)
◎豆瓣链接 https://movie.douban.com/subject/30312847/
◎片  长 90分钟
◎导  演 布莱德利·帕克 Bradley Parker
◎编  剧 洛丽·埃文斯·泰勒 Lori Evans Taylor
◎演  员 梅丽莎·巴雷拉 Melissa Barrera
      克里斯汀·哈里斯 Kristen Harris
      埃里克·阿塔瓦尔 Erik Athavale
      Frederick Allen Frederick Allen
      盖·布耐特 Guy Burnet

◎简  介
    A pregnant women on bed rest begin to wonder if her house is haunted or it's all in her head.

##### MediaInfo ######
General
Unique ID : 266005242689040744624129850660860852466 (0xC81EBF08A8CD827BA307CDC40735F8F2)
Complete name : Bed.Rest.2022.1080p.BluRay.x264.DTS-SONYHD.mkv
Duration : 1 h 30 min
Overall bit rate : 13.8 Mb/s

Video
ID : 1
Format : AVC
Format/Info : Advanced Video Codec
Format profile : [email protected]
Format settings : CABAC / 4 Ref Frames
Format settings, CABAC : Yes
Format settings, Reference frames : 4 frames
Codec ID : V_MPEG4/ISO/AVC
Duration : 1 h 30 min
Bit rate : 12.3 Mb/s
Width : 1 920 pixels
Height : 1 036 pixels
Display aspect ratio : 1.85:1
Frame rate mode : Constant
Frame rate : 23.976 (24000/1001) FPS
Color space : YUV
Chroma subsampling : 4:2:0
Bit depth : 8 bits
Scan type : Progressive
Bits/(Pixel*Frame) : 0.257
Stream size : 7.74 GiB (89%)
Writing library : x264 core 164 r3085+55M 938b6d0 t_mod_New [(8 & 10)-bit@all X86_64]
Encoding settings : cabac=1 / ref=4 / deblock=1:-3:-3 / analyse=0x3:0x133 / me=umh / subme=11 / psy=1 / fade_compensate=0.00 / psy_rd=1.00:0.00 / mixed_ref=1 / me_range=48 / chroma_me=1 / trellis=2 / 8x8dct=1 / cqm=0 / deadzone=21,11 / fast_pskip=0 / chroma_qp_offset=-3 / threads=32 / lookahead_threads=8 / sliced_threads=0 / nr=0 / decimate=0 / interlaced=0 / bluray_compat=0 / constrained_intra=0 / fgo=0 / bframes=11 / b_pyramid=2 / b_adapt=2 / b_bias=0 / direct=3 / weightb=1 / open_gop=0 / weightp=2 / keyint=240 / keyint_min=1 / scenecut=40 / intra_refresh=0 / rc_lookahead=72 / rc=crf / mbtree=0 / crf=18.6900 / qcomp=0.62 / qpmin=0:0:0 / qpmax=69:69:69 / qpstep=4 / vbv_maxrate=62500 / vbv_bufsize=78125 / crf_max=0.0 / nal_hrd=none / filler=0 / ip_ratio=1.40 / pb_ratio=1.30 / aq=3:0.73 / aq-sensitivity=10.00 / aq-factor=1.00:1.00:1.00 / aq2=0 / aq3=0
Default : Yes
Forced : No

Audio
ID : 2
ID in the original source medium : 4353 (0x1101)
Format : DTS
Format/Info : Digital Theater Systems
Codec ID : A_DTS
Duration : 1 h 30 min
Bit rate mode : Constant
Bit rate : 1 509 kb/s
Channel(s) : 6 channels
Channel layout : C L R Ls Rs LFE
Sampling rate : 48.0 kHz
Frame rate : 93.750 FPS (512 SPF)
Bit depth : 16 bits
Compression mode : Lossy
Stream size : 975 MiB (11%)
Title : English
Language : English
Default : Yes
Forced : No
Original source medium : Blu-ray

Text #1
ID : 3
ID in the original source medium : 4611 (0x1203)
Format : PGS
Muxing mode : zlib
Codec ID : S_HDMV/PGS
Codec ID/Info : Picture based subtitle format used on BDs/HD-DVDs
Duration : 1 h 25 min
Bit rate : 29.0 kb/s
Frame rate : 0.452 FPS
Count of elements : 2325
Stream size : 17.8 MiB (0%)
Title : chs
Language : Chinese
Default : Yes
Forced : No
Original source medium : Blu-ray

Text #2
ID : 4
ID in the original source medium : 4612 (0x1204)
Format : PGS
Muxing mode : zlib
Codec ID : S_HDMV/PGS
Codec ID/Info : Picture based subtitle format used on BDs/HD-DVDs
Duration : 1 h 25 min
Bit rate : 29.7 kb/s
Frame rate : 0.452 FPS
Count of elements : 2325
Stream size : 18.2 MiB (0%)
Title : cht
Language : Chinese
Default : No
Forced : No
Original source medium : Blu-ray

Text #3
ID : 5
ID in the original source medium : 4609 (0x1201)
Format : PGS
Muxing mode : zlib
Codec ID : S_HDMV/PGS
Codec ID/Info : Picture based subtitle format used on BDs/HD-DVDs
Duration : 1 h 29 min
Bit rate : 29.7 kb/s
Frame rate : 0.415 FPS
Count of elements : 2214
Stream size : 18.9 MiB (0%)
Title : eng
Language : English
Default : No
Forced : No
Original source medium : Blu-ray

Menu
00:00:00.000 : en:Chapter 01
00:05:39.714 : en:Chapter 02
00:11:47.998 : en:Chapter 03
00:19:28.584 : en:Chapter 04
00:27:42.369 : en:Chapter 05
00:36:30.146 : en:Chapter 06
00:43:39.575 : en:Chapter 07
00:51:51.233 : en:Chapter 08
01:04:03.923 : en:Chapter 09
01:11:15.229 : en:Chapter 10
01:21:55.911 : en:Chapter 11
01:25:46.141 : en:Chapter 12


部分资源为软字幕,移动端推荐播放器:MxPlayer,nPlayer,infuse ,其他播放器请自行尝试。

部分资源为软字幕,电脑端推荐播放器:PotPlayer,完美解码,KMPLAYER,其他播放器请自行尝试。



1 个附件 售价 大小 下载 时间

Bed.Rest.2022.1080p.BluRay.x264.DTS-SONYHD[1LOU.ME].torrent 0 金币 24.86K 644 次 1月前

#1楼
发帖时间:2024-02-23 19:53:16   |   回复数:0
游客组