Asuka601
隐世仙人♂

[更 早] [欧美] [其它] [BD-1080P] 克鲁伯[简繁英字幕].Crumb.1994.CC.1080p.BluRay.x265.10bit.FLAC.1.0-SONYHD 8.94GB

-->

完整标题:克鲁伯[简繁英字幕].Crumb.1994.CC.1080p.BluRay.x265.10bit.FLAC.1.0-SONYHD 8.94GB



◎标  题 克鲁伯
◎译  名 漫画大师罗伯特·克鲁伯
◎片  名 Crumb
◎年  代 1994
◎产  地 美国
◎类  别 纪录片 / 传记
◎语  言 英语
◎上映日期 1994-09-10
◎IMDb评分 8/10 (21328人评价)
◎IMDb链接 https://www.imdb.com/title/tt0109508/
◎豆瓣评分 8.4/10 (1147人评价)
◎豆瓣链接 https://movie.douban.com/subject/1418091/
◎片  长 119 分钟
◎导  演 泰利·茨威戈夫 Terry Zwigoff
◎演  员 罗伯特·克鲁伯 Robert Crumb
      Sophie Crumb Sophie Crumb
      Robert Hughes Robert Hughes
      Peggy Orenstein Peggy Orenstein
      Spain Rodriguez Spain Rodriguez

◎简  介
    罗伯特·克鲁伯是一位著名的另类漫画大师,他创造出的《怪猫菲力兹》更是首部限制级动画片。影片回顾了漫画大师的一生,采访了他的母亲、两个兄弟、妻子以及前女友等人,并挑选了他大量画作中的经典部分欣赏,一副副针砭时弊的的作品不断出自他的笔尖。   史上最佳20部纪录片之一。片子制作人是大卫林奇。   本片获 :1995年 国际纪录片协会最佳纪录片大奖   1995年 圣丹斯电影节评委会大奖,摄影奖   1995年 纽约影评人协会最佳纪录片奖   1995年 全美影评人协会最佳纪录片奖   1995年 美国国家评论协会影评人协会最佳纪录片奖   1996年 美国导演协会最佳纪录片奖

##### MediaInfo ######
General
Unique ID : 326293124109170872388131639439273641011 (0xF579C51408D10B772CB82DAC16E64433)
Complete name : Crumb.1994.CC.1080p.BluRay.x265.10bit.FLAC.1.0-SONYHD.mkv
Duration : 2 h 0 min
Overall bit rate mode : Variable
Overall bit rate : 10.6 Mb/s

Video
ID : 1
Format : HEVC
Format/Info : High Efficiency Video Coding
Format profile : Main 10@L4@Main
Codec ID : V_MPEGH/ISO/HEVC
Duration : 2 h 0 min
Bit rate : 10.2 Mb/s
Width : 1 438 pixels
Height : 1 080 pixels
Display aspect ratio : 4:3
Frame rate mode : Constant
Frame rate : 23.976 (24000/1001) FPS
Color space : YUV
Chroma subsampling : 4:2:0
Bit depth : 10 bits
Bits/(Pixel*Frame) : 0.275
Stream size : 8.61 GiB (96%)
Writing library : x265 3.5g2b25c9ba0+45:[Windows][GCC 10.2.0][64 bit] Yuuki 10bit+8bit+12bit
Encoding settings : rc=crf / crf=20.0000 / qcomp=0.60 / qpstep=4 / stats-write=0 / stats-read=0 / no-lossless / no-cu-lossless / aq-mode=3 / aq-strength=0.70 / cbqpoffs=0 / crqpoffs=0 / ipratio=1.40 / pbratio=1.30 / psy-rd=2.00 / psy-rdoq=0.00 / deblock=0:0 / ref=6 / limit-refs=1 / no-limit-modes / bframes=8 / b-adapt=2 / bframe-bias=0 / b-pyramid / b-intra / weightp / weightb / min-keyint=24 / max-keyint=240 / rc-lookahead=24 / gop-lookahead=0 / scenecut=40 / hist-scenecut=0 / radl=0 / max-cu-size=64 / min-cu-size=8 / me=3 / subme=7 / merange=48 / rdoq-level=0 / rd=4 / rdpenalty=0 / dynamic-rd=0.00 / no-rd-refine / ----- / cutree / sao / no-rect / no-amp / no-open-gop / wpp / no-pmode / pme / no-psnr / no-ssim / nr-intra=0 / nr-inter=0 / no-constrained-intra / no-strong-intra-smoothing / max-tu-size=32 / tu-inter-depth=1 / tu-intra-depth=1 / limit-tu=0 / qg-size=32 / qpmax=69 / qpmin=0 / ----- / cpuid=1111039 / frame-threads=4 / numa-pools=+ / log-level=2 / input-csp=1 / input-res=1438x1080 / interlace=0 / level-idc=0 / high-tier=1 / uhd-bd=0 / no-allow-non-conformance / no-repeat-headers / aud / no-hrd / info / hash=0 / no-temporal-layers / lookahead-slices=0 / no-splice / no-intra-refresh / no-ssim-rd / signhide / no-tskip / max-merge=3 / temporal-mvp / no-frame-dup / no-hme / no-analyze-src-pics / no-sao-non-deblock / selective-sao=4 / early-skip / rskip / no-fast-intra / no-tskip-fast / no-splitrd-skip / zone-count=0 / no-strict-cbr / no-rc-grain / no-const-vbv / sar=0 / overscan=0 / videoformat=5 / range=0 / colorprim=2 / transfer=2 / colormatrix=2 / chromaloc=0 / display-window=0 / cll=0,0 / min-luma=0 / max-luma=1023 / log2-max-poc-lsb=8 / vui-timing-info / vui-hrd-info / slices=1 / no-opt-qp-pps / no-opt-ref-list-length-pps / no-multi-pass-opt-rps / scenecut-bias=0.05 / hist-threshold=0.03 / no-opt-cu-delta-qp / no-aq-motion / no-hdr10 / no-hdr10-opt / no-dhdr10-opt / no-idr-recovery-sei / analysis-reuse-level=0 / analysis-save-reuse-level=0 / analysis-load-reuse-level=0 / scale-factor=0 / refine-intra=0 / refine-inter=0 / refine-mv=1 / refine-ctu-distortion=0 / no-limit-sao / ctu-info=0 / no-lowpass-dct / refine-analysis-type=0 / copy-pic=1 / max-ausize-factor=1.0 / no-dynamic-refine / no-single-sei / no-hevc-aq / no-svt / no-field / qp-adaptation-range=1.00 / scenecut-aware-qp=0conformance-window-offsets / right=0 / bottom=0 / decoder-max-rate=0 / no-vbv-live-multi-pass
Default : Yes
Forced : No

Audio
ID : 2
Format : FLAC
Format/Info : Free Lossless Audio Codec
Codec ID : A_FLAC
Duration : 2 h 0 min
Bit rate mode : Variable
Bit rate : 243 kb/s
Channel(s) : 1 channel
Sampling rate : 48.0 kHz
Frame rate : 11.719 FPS (4096 SPF)
Bit depth : 16 bits
Compression mode : Lossless
Stream size : 210 MiB (2%)
Writing library : libFLAC 1.2.1 (UTC 2007-09-17)
Language : English
Default : Yes
Forced : No

Text #1
ID : 3
ID in the original source medium : 4609 (0x1201)
Format : PGS
Muxing mode : zlib
Codec ID : S_HDMV/PGS
Codec ID/Info : Picture based subtitle format used on BDs/HD-DVDs
Duration : 1 h 58 min
Bit rate : 78.1 kb/s
Frame rate : 0.474 FPS
Count of elements : 3359
Stream size : 66.0 MiB (1%)
Title : chs&eng
Language : Chinese
Default : Yes
Forced : No
Original source medium : Blu-ray

Text #2
ID : 4
ID in the original source medium : 4610 (0x1202)
Format : PGS
Muxing mode : zlib
Codec ID : S_HDMV/PGS
Codec ID/Info : Picture based subtitle format used on BDs/HD-DVDs
Duration : 1 h 58 min
Bit rate : 78.2 kb/s
Frame rate : 0.474 FPS
Count of elements : 3359
Stream size : 66.1 MiB (1%)
Title : cht&eng
Language : Chinese
Default : No
Forced : No
Original source medium : Blu-ray

Text #3
ID : 5
ID in the original source medium : 4611 (0x1203)
Format : PGS
Muxing mode : zlib
Codec ID : S_HDMV/PGS
Codec ID/Info : Picture based subtitle format used on BDs/HD-DVDs
Duration : 1 h 58 min
Bit rate : 40.3 kb/s
Frame rate : 0.474 FPS
Count of elements : 3359
Stream size : 34.0 MiB (0%)
Title : chs
Language : Chinese
Default : No
Forced : No
Original source medium : Blu-ray

Text #4
ID : 6
ID in the original source medium : 4612 (0x1204)
Format : PGS
Muxing mode : zlib
Codec ID : S_HDMV/PGS
Codec ID/Info : Picture based subtitle format used on BDs/HD-DVDs
Duration : 1 h 58 min
Bit rate : 40.5 kb/s
Frame rate : 0.474 FPS
Count of elements : 3359
Stream size : 34.2 MiB (0%)
Title : cht
Language : Chinese
Default : No
Forced : No
Original source medium : Blu-ray

Text #5
ID : 7
ID in the original source medium : 4608 (0x1200)
Format : PGS
Muxing mode : zlib
Codec ID : S_HDMV/PGS
Codec ID/Info : Picture based subtitle format used on BDs/HD-DVDs
Duration : 1 h 59 min
Bit rate : 78.6 kb/s
Frame rate : 0.524 FPS
Count of elements : 3759
Stream size : 67.2 MiB (1%)
Title : eng
Language : English
Default : No
Forced : No
Original source medium : Blu-ray

Menu
00:00:00.000 : en:Exciting Subject For a Movie
00:07:38.499 : en:"The Little Guy That Lives Inside My Brain"
00:11:56.465 : en:Charles and Maxon
00:20:49.957 : en:Early Memories and Teenage Years
00:27:58.051 : en:"After I Got Famous"
00:38:19.630 : en:The Horror of America
00:50:35.157 : en:Beatrice Crumb
00:57:37.579 : en:Sex and Relationships
01:05:59.580 : en:Family Life
01:13:42.126 : en:Charles Crumb Sr.
01:19:52.245 : en:"A Bitchin' Bod" and Other Controversies
01:31:29.066 : en:It's a Beautiful World
01:48:14.154 : en:The Die is Cast


部分资源为软字幕,移动端推荐播放器:MxPlayer,nPlayer,infuse ,其他播放器请自行尝试。

部分资源为软字幕,电脑端推荐播放器:PotPlayer,完美解码,KMPLAYER,其他播放器请自行尝试。



1 个附件 售价 大小 下载 时间

Crumb.1994.CC.1080p.BluRay.x265.10bit.FLAC.1.0-SONYHD[1LOU.ME].torrent 0 金币 25.42K 945 次 1月前

#1楼
发帖时间:2024-02-23 19:50:15   |   回复数:0
游客组