Asuka601
隐世仙人♂

[2006] [欧美] [喜剧] [WEB-4K] 夏洛特的网[高码版][国英多音轨/中文字幕].Charlotte's.Web.2006.2160p.HQ.WEB-DL.H265.AAC.2Audio-Drea

-->

完整标题:夏洛特的网[高码版][国英多音轨/中文字幕].Charlotte's.Web.2006.2160p.HQ.WEB-DL.H265.AAC.2Audio-DreamHD 13.79GB



◎标  题 夏洛特的网
◎译  名 篱笆墙外 / 夏洛的网 / 莎乐的神奇网网 / 夏绿蒂的网 / Schweinchen Wilbur und seine Freunde
◎片  名 Charlotte's Web
◎年  代 2006
◎产  地 美国 / 德国
◎类  别 喜剧 / 家庭 / 奇幻
◎语  言 英语
◎上映日期 2006-12-15(美国)
◎IMDb评分 6.3/10 (44244人评价)
◎IMDb链接 https://www.imdb.com/title/tt0413895/
◎豆瓣评分 8.0/10 (72959人评价)
◎豆瓣链接 https://movie.douban.com/subject/1457218/
◎片  长 97 分钟
◎导  演 盖瑞·温尼克 Gary Winick
◎编  剧 苏珊娜·格兰特 Susannah Grant
      凯瑞·柯克帕特里克 Karey Kirkpatrick
◎演  员 朱莉娅·罗伯茨 Julia Roberts
      史蒂夫·布西密 Steve Buscemi
      约翰·克里斯 John Cleese
      奥普拉·温弗瑞 Oprah Winfrey
      塞德里克·凯尔斯 Cedric the Entertainer
      凯西·贝茨 Kathy Bates
      瑞芭·麦肯泰尔 Reba McEntire
      罗伯特·雷德福 Robert Redford
      托马斯·哈登·丘奇 Thomas Haden Church
      安德雷·本杰明 André Benjamin
      多米尼克·斯科特·凯伊 Dominic Scott Kay
      山姆·夏普德 Sam Shepard
      亚布拉哈姆·本鲁比 Abraham Benrubi
      达科塔·范宁 Dakota Fanning
      凯文·安德森 Kevin Anderson
      埃茜·戴维斯 Essie Davis
      路易·科比特 Louis Corbett
      鹤田真由 Mayu Tsuruta
      博·布里奇斯 Beau Bridges
      希博汗·法隆 Siobhan Fallon
      尼古拉斯·贝尔 Nicholas Bell
      布赖恩·斯特帕尼克 Brian Stepanek
      弗雷德·塔特西奥 Fred Tatasciore
      Bradley White Bradley White
      盖里·巴萨拉巴 Gary Basaraba
      内特·莫尼 Nate Mooney
      Don Bridges Don Bridges
      Robert Plazek
      Ian Watkin Ian Watkin
      Teague Rook Teague Rook
      乔尔·麦克拉里 Joel McCrary
      艾拉·斯科特·林奇 Ella Scott Lynch
      Greg Marian
      Stefano Mazzeo
      Julian O'Donnell Julian O'Donnell

◎简  介
    小女孩阿芬家的母猪在春天生下了一窝11只小猪,母猪只有十个奶头,最瘦弱的一只小猪没奶吃,阿芬爸爸准备将其杀掉。阿芬救下了小猪,帮它取名韦宝,亲自喂养。   随着小猪慢慢长大,阿芬不能再在家里养韦宝了,阿芬只好把韦宝送到隔壁舅舅的农场里继续饲养。韦宝天真烂漫,很快就以其热情、开朗的性格和农场里的动物成了好朋友。   幸福快乐的时光很快过去,韦宝从其他动物口中得知春天出生的小猪圣诞节前就会被杀掉制熏肉。韦宝的好朋友蜘蛛莎莉承诺会让韦宝看到冬天的雪。在老鼠的帮助下,莎莉织出了各种各样神奇的字来形容韦宝,引来人们争相观看,韦宝最终能否看到冬天的雪?

点击图片可查看大图

软字幕无法在截图上展现,HDR版本/杜比视界版本截图会出现颜色异常,请使用支持的设备播放!

##### MediaInfo ######
General
Unique ID : 112933371170936480671283394299596106010 (0x54F62D1695C5ACA36FE11FB5D1E7E91A)
Complete name : Charlotte's.Web.2006.2160p.HQ.WEB-DL.H265.AAC.2Audio-DreamHD.mkv
Duration : 1 h 36 min
Overall bit rate : 20.3 Mb/s

Video
ID : 1
Format : HEVC
Format/Info : High Efficiency Video Coding
Format profile : Main [email protected]@Main
Codec ID : V_MPEGH/ISO/HEVC
Duration : 1 h 36 min
Bit rate : 20.0 Mb/s
Width : 3 840 pixels
Height : 2 160 pixels
Display aspect ratio : 16:9
Frame rate mode : Constant
Frame rate : 23.976 (23976/1000) FPS
Color space : YUV
Chroma subsampling : 4:2:0
Bit depth : 10 bits
Bits/(Pixel*Frame) : 0.100
Stream size : 13.5 GiB (98%)
Default : Yes
Forced : No
Color range : Limited
Color primaries : BT.709
Transfer characteristics : BT.709
Matrix coefficients : BT.709

Audio #1
ID : 2
Format : AAC LC
Format/Info : Advanced Audio Codec Low Complexity
Codec ID : A_AAC-2
Duration : 1 h 36 min
Bit rate : 192 kb/s
Channel(s) : 2 channels
Channel layout : L R
Sampling rate : 44.1 kHz
Frame rate : 43.066 FPS (1024 SPF)
Compression mode : Lossy
Stream size : 133 MiB (1%)
Title : [AAC2.0]
Language : English
Default : Yes
Forced : No

Audio #2
ID : 3
Format : AAC LC
Format/Info : Advanced Audio Codec Low Complexity
Codec ID : A_AAC-2
Duration : 1 h 36 min
Bit rate : 192 kb/s
Channel(s) : 2 channels
Channel layout : L R
Sampling rate : 44.1 kHz
Frame rate : 43.066 FPS (1024 SPF)
Compression mode : Lossy
Stream size : 132 MiB (1%)
Title : Mandarin [AAC2.0]
Language : Chinese
Default : No
Forced : No


部分资源为软字幕,移动端推荐播放器:MxPlayer,nPlayer,infuse ,其他播放器请自行尝试。

部分资源为软字幕,电脑端推荐播放器:PotPlayer,完美解码,KMPLAYER,其他播放器请自行尝试。



1 个附件 售价 大小 下载 时间

Charlotte's.Web.2006.2160p.HQ.WEB-DL.H265.AAC.2Audio-DreamHD[1LOU.ME].torrent 0 金币 37.58K 1575 次 1月前

#1楼
发帖时间:2024-02-23 08:01:01   |   回复数:1
jokingcheung
超凡入圣№
谢谢分享
1月前 #2楼
游客组