Asuka601
隐世仙人♂

[2017] [印度] [剧情] [WEB-4K] 云端之上[高码版][国语配音/中文字幕].Beyond.the.Clouds.2018.2160p.HQ.WEB-DL.H265.DDP5.1.2Audio-D

-->

完整标题:云端之上[高码版][国语配音/中文字幕].Beyond.the.Clouds.2018.2160p.HQ.WEB-DL.H265.DDP5.1.2Audio-DreamHD 17.35GB



◎标  题 云端之上
◎译  名 云之上 / Floating Gardens
◎片  名 Beyond the Clouds
◎年  代 2017
◎产  地 印度 / 伊朗
◎类  别 剧情 / 家庭
◎语  言 英语 / 印地语
◎上映日期 2019-05-24(中国大陆) / 2017-10-13(伦敦电影节) / 2018-04-20(印度)
◎IMDb评分 6.9/10 (2542人评价)
◎IMDb链接 https://www.imdb.com/title/tt3224288/
◎豆瓣评分 7.5/10 (15211人评价)
◎豆瓣链接 https://movie.douban.com/subject/25805039/
◎片  长 120分钟
◎导  演 马基德·马基迪 Majid Majidi
◎编  剧 迈赫兰·卡沙尼 Mehran Kashani
      马基德·马基迪 Majid Majidi
◎演  员 艾萨·安哈尔 Ishaan Khattar
      马拉维卡·莫哈南 Malavika Mohanan
      哥泰·高斯 Goutam Ghose
      莎拉达 Sharada
      塔妮莎·查特吉 Tannishtha Chatterjee
      沙山克·申德 Shashank Shende
      赫马·辛格 Hema Singh
      阿卡什·戈帕尔 Akash Gopal
      达万尼·拉杰什 Dhwani Rajesh
      阿姆鲁塔·桑托什·塔库尔 Amruta Santosh Thakur
      希瓦姆·普加利 Shivam Pujari
      雷蒙德·狄索萨 Raymond D'Souza
      米尔·马尔泽 Mia Maelzer
      萨塔吉特·拉吉普特 Satyajeet Rajput
      希巴·沙阿 Heeba Shah

◎简  介
    埃米尔(艾萨·安哈尔 Ishaan Kapoor 饰)是一个整日里游手好闲的小混混,一天,为了躲避警察的追捕,埃米尔躲进了姐姐工作的洗衣房,姐姐包庇埃米尔的行为被她的老板发现了,老板竟然以此为把柄威胁姐姐想要对她不轨。埃米尔一怒之下袭击了老板,导致老板重伤入院。如果老板死亡,那么埃米尔将因为过失杀人罪而面临牢狱之灾,为了避免这一情况的发生,埃米尔不得不留在医院里,贴身照顾自己的仇人。   老板的妈妈(沙拉达 Sharada 饰)得知儿子住院,于是带着两个孙女来到医院探望,这下可好了,埃米尔需要照顾的人又多了三个。祖孙三人的到来虽然给埃米尔带来了很多麻烦,但在处理这些麻烦的过程中,埃米尔也逐渐领悟了人生的真谛。

点击图片可查看大图

软字幕无法在截图上展现,HDR版本/杜比视界版本截图会出现颜色异常,请使用支持的设备播放!

##### MediaInfo ######
General
Unique ID : 41749478791848627471323922617347887878 (0x1F68A83A1DAAFC47874EAE9C60985306)
Complete name : Beyond.the.Clouds.2018.2160p.HQ.WEB-DL.H265.DDP5.1.2Audio-NukeHD.mkv
Duration : 1 h 59 min
Overall bit rate : 20.8 Mb/s

Video
ID : 1
Format : HEVC
Format/Info : High Efficiency Video Coding
Format profile : Main [email protected]@Main
Codec ID : V_MPEGH/ISO/HEVC
Duration : 1 h 59 min
Bit rate : 19.9 Mb/s
Width : 3 840 pixels
Height : 2 080 pixels
Display aspect ratio : 1.85:1
Frame rate mode : Constant
Frame rate : 24.000 FPS
Color space : YUV
Chroma subsampling : 4:2:0
Bit depth : 10 bits
Bits/(Pixel*Frame) : 0.104
Stream size : 16.6 GiB (96%)
Default : Yes
Forced : No
Color range : Limited
Color primaries : BT.709
Transfer characteristics : BT.709
Matrix coefficients : BT.709

Audio #1
ID : 2
Format : E-AC-3
Format/Info : Enhanced AC-3
Commercial name : Dolby Digital Plus
Codec ID : A_EAC3
Duration : 1 h 59 min
Bit rate mode : Constant
Bit rate : 256 kb/s
Channel(s) : 6 channels
Channel layout : L R C LFE Ls Rs
Sampling rate : 48.0 kHz
Frame rate : 31.250 FPS (1536 SPF)
Compression mode : Lossy
Stream size : 219 MiB (1%)
Title : [DDP5.1]
Language : Hindi
Service kind : Complete Main
Default : Yes
Forced : No

Audio #2
ID : 3
Format : E-AC-3
Format/Info : Enhanced AC-3
Commercial name : Dolby Digital Plus
Codec ID : A_EAC3
Duration : 1 h 59 min
Bit rate mode : Constant
Bit rate : 256 kb/s
Channel(s) : 6 channels
Channel layout : L R C LFE Ls Rs
Sampling rate : 48.0 kHz
Frame rate : 31.250 FPS (1536 SPF)
Compression mode : Lossy
Stream size : 219 MiB (1%)
Title : Mandarin [DDP5.1]
Language : Chinese
Service kind : Complete Main
Default : No
Forced : No

Audio #3
ID : 4
Format : AAC LC
Format/Info : Advanced Audio Codec Low Complexity
Codec ID : A_AAC-2
Duration : 1 h 59 min
Bit rate : 192 kb/s
Channel(s) : 2 channels
Channel layout : L R
Sampling rate : 44.1 kHz
Frame rate : 43.066 FPS (1024 SPF)
Compression mode : Lossy
Stream size : 164 MiB (1%)
Title : [AAC2.0]
Language : Hindi
Default : No
Forced : No

Audio #4
ID : 5
Format : AAC LC
Format/Info : Advanced Audio Codec Low Complexity
Codec ID : A_AAC-2
Duration : 1 h 59 min
Bit rate : 192 kb/s
Channel(s) : 2 channels
Channel layout : L R
Sampling rate : 44.1 kHz
Frame rate : 43.066 FPS (1024 SPF)
Compression mode : Lossy
Stream size : 162 MiB (1%)
Title : Mandarin [AAC2.0]
Language : Chinese
Default : No
Forced : No


部分资源为软字幕,移动端推荐播放器:MxPlayer,nPlayer,infuse ,其他播放器请自行尝试。

部分资源为软字幕,电脑端推荐播放器:PotPlayer,完美解码,KMPLAYER,其他播放器请自行尝试。



1 个附件 售价 大小 下载 时间

Beyond.the.Clouds.2018.2160p.HQ.WEB-DL.H265.DDP5.1.2Audio-DreamHD[1LOU.ME].torrent 0 金币 46.50K 1085 次 1月前

#1楼
发帖时间:2024-02-23 07:58:28   |   回复数:0
游客组