Asuka601
隐世仙人♂

[更 早] [其它] [剧情] [BD-1080P] 无人生还[简繁英字幕].Ten.Little.Indians.1974.1080p.BluRay.x265.10bit.FLAC.2.0-SONYHD 5.05

-->

完整标题:无人生还[简繁英字幕].Ten.Little.Indians.1974.1080p.BluRay.x265.10bit.FLAC.2.0-SONYHD 5.05GB



◎标  题 无人生还
◎译  名 And Then There Were None / Ein Unbekannter rechnet ab
◎片  名 Ten Little Indians
◎年  代 1974
◎产  地 法国 / 西班牙 / 西德 / 意大利
◎类  别 剧情 / 悬疑 / 犯罪
◎语  言 英语
◎上映日期 1974-09-24(西德)
◎IMDb评分 5.7/10 (3447人评价)
◎IMDb链接 https://www.imdb.com/title/tt0072263/
◎豆瓣评分 8.2/10 (1515人评价)
◎豆瓣链接 https://movie.douban.com/subject/1947300/
◎片  长 92分钟
◎导  演 彼特·克林逊 Peter Collinson
◎编  剧 阿加莎·克里斯蒂 Agatha Christie
◎演  员 查尔·阿兹纳弗 Charles Aznavour
      玛丽亚·罗姆 Maria Rohm
      阿道弗·切利 Adolfo Celi
      斯特凡·奥德朗 Stéphane Audran
      阿尔维托·德·门多萨 Alberto de Mendoza
      理查德·阿滕伯勒 Richard Attenborough
      杰特·弗罗比 Gert Fröbe
      赫伯特·罗姆 Herbert Lom
      艾尔克·萨默 Elke Sommer
      奥列佛·里德 Oliver Reed
      特雷莎·希梅拉 Teresa Gimpera
      里克·巴塔利亚 Rik Battaglia
      Nasser Malekmotei Nasser Malekmotei
      奥逊·威尔斯 Orson Welles

◎简  介
    Updated version of the Agatha Christie book "And Then There Were None. In this version, the group is invited, under false pretenses, to an isolated hotel in the Iranian desert. After dinner, a cassette tape (voiced by the legendary Orson Welles) accuses them all of crimes that they have gotten away with. One by one they begin to die, in accordance to the Ten Little Indians Nursery rhyme. After a search is made of the hotel, they realize that the murderer is one of them. A few members of the group attempt to trust each other, but the question still remains, who can one trust? and who will leave the hotel alive?

点击图片可查看大图

软字幕无法在截图上展现,HDR版本/杜比视界版本截图会出现颜色异常,请使用支持的设备播放!

##### MediaInfo ######
General
Unique ID : 203951888122032329410365280785968014984 (0x996FB4715E21457A6B36FF1464AE2688)
Complete name : Ten.Little.Indians.1974.1080p.BluRay.x265.10bit.FLAC.2.0-SONYHD.mkv
Duration : 1 h 38 min
Overall bit rate mode : Variable
Overall bit rate : 7 363 kb/s

Video
ID : 1
Format : HEVC
Format/Info : High Efficiency Video Coding
Format profile : Main 10@L5@Main
Codec ID : V_MPEGH/ISO/HEVC
Duration : 1 h 38 min
Bit rate : 6 930 kb/s
Width : 1 800 pixels
Height : 1 080 pixels
Display aspect ratio : 5:3
Frame rate mode : Constant
Frame rate : 23.976 (24000/1001) FPS
Color space : YUV
Chroma subsampling : 4:2:0
Bit depth : 10 bits
Bits/(Pixel*Frame) : 0.149
Stream size : 4.75 GiB (94%)
Writing library : x265 3.5g2b25c9ba0+45:[Windows][GCC 10.2.0][64 bit] Yuuki 10bit+8bit+12bit
Encoding settings : rc=crf / crf=18.5900 / qcomp=0.60 / qpstep=4 / stats-write=0 / stats-read=0 / no-lossless / no-cu-lossless / aq-mode=3 / aq-strength=0.90 / cbqpoffs=0 / crqpoffs=0 / ipratio=1.40 / pbratio=1.30 / psy-rd=2.00 / psy-rdoq=0.00 / deblock=0:0 / ref=6 / limit-refs=1 / no-limit-modes / bframes=8 / b-adapt=2 / bframe-bias=0 / b-pyramid / b-intra / weightp / weightb / min-keyint=24 / max-keyint=240 / rc-lookahead=24 / gop-lookahead=0 / scenecut=40 / hist-scenecut=0 / radl=0 / max-cu-size=64 / min-cu-size=8 / me=3 / subme=7 / merange=48 / rdoq-level=0 / rd=4 / rdpenalty=0 / dynamic-rd=0.00 / no-rd-refine / ----- / cutree / sao / no-rect / no-amp / no-open-gop / wpp / no-pmode / no-pme / no-psnr / no-ssim / nr-intra=0 / nr-inter=0 / no-constrained-intra / no-strong-intra-smoothing / max-tu-size=32 / tu-inter-depth=1 / tu-intra-depth=1 / limit-tu=0 / qg-size=32 / qpmax=69 / qpmin=0 / ----- / cpuid=1111039 / frame-threads=4 / numa-pools=+ / log-level=2 / input-csp=1 / input-res=1800x1080 / interlace=0 / level-idc=0 / high-tier=1 / uhd-bd=0 / no-allow-non-conformance / repeat-headers / aud / no-hrd / info / hash=0 / no-temporal-layers / lookahead-slices=0 / no-splice / no-intra-refresh / no-ssim-rd / signhide / no-tskip / max-merge=3 / temporal-mvp / no-frame-dup / no-hme / no-analyze-src-pics / no-sao-non-deblock / selective-sao=4 / early-skip / rskip / no-fast-intra / no-tskip-fast / no-splitrd-skip / zone-count=0 / no-strict-cbr / no-rc-grain / no-const-vbv / sar=0 / overscan=0 / videoformat=5 / range=0 / colorprim=2 / transfer=2 / colormatrix=2 / chromaloc=0 / display-window=0 / cll=0,0 / min-luma=0 / max-luma=1023 / log2-max-poc-lsb=8 / vui-timing-info / vui-hrd-info / slices=1 / no-opt-qp-pps / no-opt-ref-list-length-pps / no-multi-pass-opt-rps / scenecut-bias=0.05 / hist-threshold=0.03 / no-opt-cu-delta-qp / no-aq-motion / no-hdr10 / no-hdr10-opt / no-dhdr10-opt / no-idr-recovery-sei / analysis-reuse-level=0 / analysis-save-reuse-level=0 / analysis-load-reuse-level=0 / scale-factor=0 / refine-intra=0 / refine-inter=0 / refine-mv=1 / refine-ctu-distortion=0 / no-limit-sao / ctu-info=0 / no-lowpass-dct / refine-analysis-type=0 / copy-pic=1 / max-ausize-factor=1.0 / no-dynamic-refine / no-single-sei / no-hevc-aq / no-svt / no-field / qp-adaptation-range=1.00 / scenecut-aware-qp=0conformance-window-offsets / right=0 / bottom=0 / decoder-max-rate=0 / no-vbv-live-multi-pass
Default : Yes
Forced : No

Audio
ID : 2
Format : FLAC
Format/Info : Free Lossless Audio Codec
Codec ID : A_FLAC
Duration : 1 h 38 min
Bit rate mode : Variable
Bit rate : 363 kb/s
Channel(s) : 2 channels
Channel layout : L R
Sampling rate : 48.0 kHz
Frame rate : 11.719 FPS (4096 SPF)
Bit depth : 16 bits
Compression mode : Lossless
Stream size : 255 MiB (5%)
Title : English
Writing library : libFLAC 1.2.1 (UTC 2007-09-17)
Language : English
Default : Yes
Forced : No

Text #1
ID : 3
ID in the original source medium : 4608 (0x1200)
Format : PGS
Muxing mode : zlib
Codec ID : S_HDMV/PGS
Codec ID/Info : Picture based subtitle format used on BDs/HD-DVDs
Duration : 1 h 37 min
Bit rate : 41.1 kb/s
Frame rate : 0.283 FPS
Count of elements : 1661
Stream size : 28.7 MiB (1%)
Title : chs&eng
Language : Chinese
Default : Yes
Forced : No
Original source medium : Blu-ray

Text #2
ID : 4
ID in the original source medium : 4609 (0x1201)
Format : PGS
Muxing mode : zlib
Codec ID : S_HDMV/PGS
Codec ID/Info : Picture based subtitle format used on BDs/HD-DVDs
Duration : 1 h 37 min
Bit rate : 41.3 kb/s
Frame rate : 0.283 FPS
Count of elements : 1661
Stream size : 28.9 MiB (1%)
Title : cht&eng
Language : Chinese
Default : No
Forced : No
Original source medium : Blu-ray

Text #3
ID : 5
ID in the original source medium : 4610 (0x1202)
Format : PGS
Muxing mode : zlib
Codec ID : S_HDMV/PGS
Codec ID/Info : Picture based subtitle format used on BDs/HD-DVDs
Duration : 1 h 37 min
Bit rate : 23.1 kb/s
Frame rate : 0.283 FPS
Count of elements : 1661
Stream size : 16.2 MiB (0%)
Title : chs
Language : Chinese
Default : No
Forced : No
Original source medium : Blu-ray

Text #4
ID : 6
ID in the original source medium : 4611 (0x1203)
Format : PGS
Muxing mode : zlib
Codec ID : S_HDMV/PGS
Codec ID/Info : Picture based subtitle format used on BDs/HD-DVDs
Duration : 1 h 37 min
Bit rate : 23.3 kb/s
Frame rate : 0.283 FPS
Count of elements : 1661
Stream size : 16.3 MiB (0%)
Title : cht
Language : Chinese
Default : No
Forced : No
Original source medium : Blu-ray

Text #5
ID : 7
ID in the original source medium : 4612 (0x1204)
Format : PGS
Muxing mode : zlib
Codec ID : S_HDMV/PGS
Codec ID/Info : Picture based subtitle format used on BDs/HD-DVDs
Duration : 1 h 37 min
Bit rate : 20.3 kb/s
Frame rate : 0.283 FPS
Count of elements : 1659
Stream size : 14.2 MiB (0%)
Title : eng
Language : English
Default : No
Forced : No
Original source medium : Blu-ray

Menu
00:00:00.000 : en:Chapter 01
00:03:15.612 : en:Chapter 02
00:10:31.213 : en:Chapter 03
00:16:45.671 : en:Chapter 04
00:26:38.096 : en:Chapter 05
00:32:59.894 : en:Chapter 06
00:38:15.876 : en:Chapter 07
00:45:59.798 : en:Chapter 08
00:52:35.652 : en:Chapter 09
00:58:54.364 : en:Chapter 10
01:05:06.485 : en:Chapter 11
01:10:02.907 : en:Chapter 12
01:18:11.520 : en:Chapter 13
01:25:40.718 : en:Chapter 14
01:32:00.264 : en:Chapter 15


部分资源为软字幕,移动端推荐播放器:MxPlayer,nPlayer,infuse ,其他播放器请自行尝试。

部分资源为软字幕,电脑端推荐播放器:PotPlayer,完美解码,KMPLAYER,其他播放器请自行尝试。



1 个附件 售价 大小 下载 时间

Ten.Little.Indians.1974.1080p.BluRay.x265.10bit.FLAC.2.0-SONYHD[1LOU.ME].torrent 0 金币 15.72K 1449 次 1月前

#1楼
发帖时间:2024-02-23 07:56:15   |   回复数:0
游客组