Asuka601
隐世仙人♂

[2010] [印度] [剧情] [BD-1080P] 圣域守护者[简繁英字幕].Badrinath.2011.1080p.BluRay.x265.10bit.DD.5.1-SONYHD 10.52GB

-->

完整标题:圣域守护者[简繁英字幕].Badrinath.2011.1080p.BluRay.x265.10bit.DD.5.1-SONYHD 10.52GB



◎标  题 圣域守护者
◎译  名 在爱你之前 / 伯德里纳特 / 巴德林纳特
◎片  名 Badrinath
◎年  代 2010
◎产  地 印度
◎类  别 剧情 / 动作
◎语  言 Telugu
◎上映日期 2011
◎IMDb评分 4.4/10 (2427人评价)
◎IMDb链接 https://www.imdb.com/title/tt1625856/
◎豆瓣评分 5.8/10 (196人评价)
◎豆瓣链接 https://movie.douban.com/subject/5154155/
◎演  员 阿卢·阿尔军 Allu Arjun
      特曼娜·芭蒂亚 Tamannaah Bhatia
      普拉卡什·拉贾 Prakash Raj
      乔伊·波德拉尼 Joy Badlani

◎简  介
    巴德里是一位在特殊环境下长大的虔诚修武者,自称“不是为女人而生”,并对自己的师尊唯命是从。但人生就是充满了未知,一位刁蛮任性的大小姐爱上了他。面对似火的柔情,巴德里却仿佛一块顽石。世事总是无常,于是,一则时而惊心动魄时而浪漫蜜意的新天方夜谭便展现在我们的面前。

点击图片可查看大图

软字幕无法在截图上展现,HDR版本/杜比视界版本截图会出现颜色异常,请使用支持的设备播放!

##### MediaInfo ######
General
Unique ID : 165325010051706627165546430882321782477 (0x7C6070515C6A25399B01C509EA6BD6CD)
Complete name : Badrinath.2011.1080p.BluRay.x265.10bit.DD.5.1-SONYHD.mkv
Duration : 2 h 20 min
Overall bit rate : 10.7 Mb/s

Video
ID : 1
Format : HEVC
Format/Info : High Efficiency Video Coding
Format profile : Main 10@L4@Main
Codec ID : V_MPEGH/ISO/HEVC
Duration : 2 h 20 min
Bit rate : 10.2 Mb/s
Width : 1 920 pixels
Height : 828 pixels
Display aspect ratio : 2.35:1
Frame rate mode : Constant
Frame rate : 24.000 FPS
Color space : YUV
Chroma subsampling : 4:2:0
Bit depth : 10 bits
Bits/(Pixel*Frame) : 0.268
Stream size : 10.0 GiB (96%)
Writing library : x265 3.5g2b25c9ba0+45:[Windows][GCC 10.2.0][64 bit] Yuuki 10bit+8bit+12bit
Encoding settings : rc=crf / crf=20.6200 / qcomp=0.60 / qpstep=4 / stats-write=0 / stats-read=0 / no-lossless / no-cu-lossless / aq-mode=3 / aq-strength=0.90 / cbqpoffs=0 / crqpoffs=0 / ipratio=1.40 / pbratio=1.30 / psy-rd=2.00 / psy-rdoq=0.00 / deblock=0:0 / ref=6 / limit-refs=1 / no-limit-modes / bframes=8 / b-adapt=2 / bframe-bias=0 / b-pyramid / b-intra / weightp / weightb / min-keyint=24 / max-keyint=240 / rc-lookahead=24 / gop-lookahead=0 / scenecut=40 / hist-scenecut=0 / radl=0 / max-cu-size=64 / min-cu-size=8 / me=3 / subme=7 / merange=48 / rdoq-level=0 / rd=4 / rdpenalty=0 / dynamic-rd=0.00 / no-rd-refine / ----- / cutree / sao / no-rect / no-amp / no-open-gop / wpp / no-pmode / no-pme / no-psnr / no-ssim / nr-intra=0 / nr-inter=0 / no-constrained-intra / no-strong-intra-smoothing / max-tu-size=32 / tu-inter-depth=1 / tu-intra-depth=1 / limit-tu=0 / qg-size=32 / qpmax=69 / qpmin=0 / ----- / cpuid=1111039 / frame-threads=4 / numa-pools=+ / log-level=2 / input-csp=1 / input-res=1920x828 / interlace=0 / level-idc=0 / high-tier=1 / uhd-bd=0 / no-allow-non-conformance / repeat-headers / aud / no-hrd / info / hash=0 / no-temporal-layers / lookahead-slices=0 / no-splice / no-intra-refresh / no-ssim-rd / signhide / no-tskip / max-merge=3 / temporal-mvp / no-frame-dup / no-hme / no-analyze-src-pics / no-sao-non-deblock / selective-sao=4 / early-skip / rskip / no-fast-intra / no-tskip-fast / no-splitrd-skip / zone-count=0 / no-strict-cbr / no-rc-grain / no-const-vbv / sar=0 / overscan=0 / videoformat=5 / range=0 / colorprim=2 / transfer=2 / colormatrix=2 / chromaloc=0 / display-window=0 / cll=0,0 / min-luma=0 / max-luma=1023 / log2-max-poc-lsb=8 / vui-timing-info / vui-hrd-info / slices=1 / no-opt-qp-pps / no-opt-ref-list-length-pps / no-multi-pass-opt-rps / scenecut-bias=0.05 / hist-threshold=0.03 / no-opt-cu-delta-qp / no-aq-motion / no-hdr10 / no-hdr10-opt / no-dhdr10-opt / no-idr-recovery-sei / analysis-reuse-level=0 / analysis-save-reuse-level=0 / analysis-load-reuse-level=0 / scale-factor=0 / refine-intra=0 / refine-inter=0 / refine-mv=1 / refine-ctu-distortion=0 / no-limit-sao / ctu-info=0 / no-lowpass-dct / refine-analysis-type=0 / copy-pic=1 / max-ausize-factor=1.0 / no-dynamic-refine / no-single-sei / no-hevc-aq / no-svt / no-field / qp-adaptation-range=1.00 / scenecut-aware-qp=0conformance-window-offsets / right=0 / bottom=0 / decoder-max-rate=0 / no-vbv-live-multi-pass
Default : Yes
Forced : No

Audio
ID : 2
ID in the original source medium : 4352 (0x1100)
Format : AC-3
Format/Info : Audio Coding 3
Commercial name : Dolby Digital
Codec ID : A_AC3
Duration : 2 h 20 min
Bit rate mode : Constant
Bit rate : 448 kb/s
Channel(s) : 6 channels
Channel layout : L R C LFE Ls Rs
Sampling rate : 48.0 kHz
Frame rate : 31.250 FPS (1536 SPF)
Compression mode : Lossy
Stream size : 451 MiB (4%)
Title : Telugu
Language : Telugu
Service kind : Complete Main
Default : Yes
Forced : No
Original source medium : Blu-ray

Text #1
ID : 3
ID in the original source medium : 4609 (0x1201)
Format : PGS
Muxing mode : zlib
Codec ID : S_HDMV/PGS
Codec ID/Info : Picture based subtitle format used on BDs/HD-DVDs
Duration : 2 h 17 min
Bit rate : 19.5 kb/s
Frame rate : 0.306 FPS
Count of elements : 2523
Stream size : 19.1 MiB (0%)
Title : chs
Language : Chinese
Default : Yes
Forced : No
Original source medium : Blu-ray

Text #2
ID : 4
ID in the original source medium : 4610 (0x1202)
Format : PGS
Muxing mode : zlib
Codec ID : S_HDMV/PGS
Codec ID/Info : Picture based subtitle format used on BDs/HD-DVDs
Duration : 2 h 17 min
Bit rate : 19.7 kb/s
Frame rate : 0.306 FPS
Count of elements : 2523
Stream size : 19.4 MiB (0%)
Title : cht
Language : Chinese
Default : No
Forced : No
Original source medium : Blu-ray

Text #3
ID : 5
ID in the original source medium : 4608 (0x1200)
Format : PGS
Muxing mode : zlib
Codec ID : S_HDMV/PGS
Codec ID/Info : Picture based subtitle format used on BDs/HD-DVDs
Duration : 2 h 15 min
Bit rate : 24.2 kb/s
Frame rate : 0.291 FPS
Count of elements : 2372
Stream size : 23.5 MiB (0%)
Title : eng
Language : English
Default : No
Forced : No
Original source medium : Blu-ray

Menu
00:00:00.000 : en:Chapter 01
00:04:47.000 : en:Chapter 02
00:16:33.000 : en:Chapter 03
00:20:51.000 : en:Chapter 04
00:28:19.000 : en:Chapter 05
00:33:41.625 : en:Chapter 06
00:40:09.000 : en:Chapter 07
00:51:47.000 : en:Chapter 08
00:56:33.000 : en:Chapter 09
01:01:51.416 : en:Chapter 10
01:08:43.625 : en:Chapter 11
01:13:15.000 : en:Chapter 12
01:18:43.833 : en:Chapter 13
01:25:10.000 : en:Chapter 14
01:33:06.000 : en:Chapter 15
01:37:25.208 : en:Chapter 16
01:48:21.625 : en:Chapter 17
01:54:15.416 : en:Chapter 18
02:05:30.000 : en:Chapter 19
02:14:16.625 : en:Chapter 20


部分资源为软字幕,移动端推荐播放器:MxPlayer,nPlayer,infuse ,其他播放器请自行尝试。

部分资源为软字幕,电脑端推荐播放器:PotPlayer,完美解码,KMPLAYER,其他播放器请自行尝试。



1 个附件 售价 大小 下载 时间

Badrinath.2011.1080p.BluRay.x265.10bit.DD.5.1-SONYHD[1LOU.ME].torrent 0 金币 29.37K 875 次 1月前

#1楼
发帖时间:2024-02-23 07:51:57   |   回复数:0
游客组