Asuka601
隐世仙人♂

[2010] [印度] [剧情] [BD-1080P] 圣域守护者[简繁英字幕].Badrinath.2011.1080p.BluRay.x264.DD.5.1-SONYHD 15.69GB

-->

完整标题:圣域守护者[简繁英字幕].Badrinath.2011.1080p.BluRay.x264.DD.5.1-SONYHD 15.69GB



◎标  题 圣域守护者
◎译  名 在爱你之前 / 伯德里纳特 / 巴德林纳特
◎片  名 Badrinath
◎年  代 2010
◎产  地 印度
◎类  别 剧情 / 动作
◎语  言 Telugu
◎上映日期 2011
◎IMDb评分 4.4/10 (2427人评价)
◎IMDb链接 https://www.imdb.com/title/tt1625856/
◎豆瓣评分 5.8/10 (196人评价)
◎豆瓣链接 https://movie.douban.com/subject/5154155/
◎演  员 阿卢·阿尔军 Allu Arjun
      特曼娜·芭蒂亚 Tamannaah Bhatia
      普拉卡什·拉贾 Prakash Raj
      乔伊·波德拉尼 Joy Badlani

◎简  介
    巴德里是一位在特殊环境下长大的虔诚修武者,自称“不是为女人而生”,并对自己的师尊唯命是从。但人生就是充满了未知,一位刁蛮任性的大小姐爱上了他。面对似火的柔情,巴德里却仿佛一块顽石。世事总是无常,于是,一则时而惊心动魄时而浪漫蜜意的新天方夜谭便展现在我们的面前。

点击图片可查看大图

软字幕无法在截图上展现,HDR版本/杜比视界版本截图会出现颜色异常,请使用支持的设备播放!

##### MediaInfo ######
General
Unique ID : 29945553634629607148233848244867494575 (0x16874DC8C2CC7675B3BE923666DCF2AF)
Complete name : Badrinath.2011.1080p.BluRay.x264.DD.5.1-SONYHD.mkv
Duration : 2 h 20 min
Overall bit rate : 16.0 Mb/s

Video
ID : 1
Format : AVC
Format/Info : Advanced Video Codec
Format profile : [email protected]
Format settings : CABAC / 4 Ref Frames
Format settings, CABAC : Yes
Format settings, Reference frames : 4 frames
Codec ID : V_MPEG4/ISO/AVC
Duration : 2 h 20 min
Bit rate : 15.5 Mb/s
Width : 1 920 pixels
Height : 828 pixels
Display aspect ratio : 2.35:1
Frame rate mode : Constant
Frame rate : 24.000 FPS
Color space : YUV
Chroma subsampling : 4:2:0
Bit depth : 8 bits
Scan type : Progressive
Bits/(Pixel*Frame) : 0.406
Stream size : 15.2 GiB (97%)
Writing library : x264 core 164 r3085+55M 938b6d0 t_mod_New [(8 & 10)-bit@all X86_64]
Encoding settings : cabac=1 / ref=4 / deblock=1:-3:-3 / analyse=0x3:0x133 / me=umh / subme=11 / psy=1 / fade_compensate=0.00 / psy_rd=1.00:0.00 / mixed_ref=1 / me_range=48 / chroma_me=1 / trellis=2 / 8x8dct=1 / cqm=0 / deadzone=21,11 / fast_pskip=0 / chroma_qp_offset=-3 / threads=26 / lookahead_threads=6 / sliced_threads=0 / nr=0 / decimate=0 / interlaced=0 / bluray_compat=0 / constrained_intra=0 / fgo=0 / bframes=11 / b_pyramid=2 / b_adapt=2 / b_bias=0 / direct=3 / weightb=1 / open_gop=0 / weightp=2 / keyint=240 / keyint_min=1 / scenecut=40 / intra_refresh=0 / rc_lookahead=72 / rc=crf / mbtree=0 / crf=19.0000 / qcomp=0.60 / qpmin=0:0:0 / qpmax=69:69:69 / qpstep=4 / vbv_maxrate=62500 / vbv_bufsize=78125 / crf_max=0.0 / nal_hrd=none / filler=0 / ip_ratio=1.40 / pb_ratio=1.30 / aq=3:0.70 / aq-sensitivity=10.00 / aq-factor=1.00:1.00:1.00 / aq2=0 / aq3=0
Default : Yes
Forced : No

Audio
ID : 2
ID in the original source medium : 4352 (0x1100)
Format : AC-3
Format/Info : Audio Coding 3
Commercial name : Dolby Digital
Codec ID : A_AC3
Duration : 2 h 20 min
Bit rate mode : Constant
Bit rate : 448 kb/s
Channel(s) : 6 channels
Channel layout : L R C LFE Ls Rs
Sampling rate : 48.0 kHz
Frame rate : 31.250 FPS (1536 SPF)
Compression mode : Lossy
Stream size : 451 MiB (3%)
Title : Telugu
Language : Telugu
Service kind : Complete Main
Default : Yes
Forced : No
Original source medium : Blu-ray

Text #1
ID : 3
ID in the original source medium : 4609 (0x1201)
Format : PGS
Muxing mode : zlib
Codec ID : S_HDMV/PGS
Codec ID/Info : Picture based subtitle format used on BDs/HD-DVDs
Duration : 2 h 17 min
Bit rate : 19.5 kb/s
Frame rate : 0.306 FPS
Count of elements : 2523
Stream size : 19.1 MiB (0%)
Title : chs
Language : Chinese
Default : Yes
Forced : No
Original source medium : Blu-ray

Text #2
ID : 4
ID in the original source medium : 4610 (0x1202)
Format : PGS
Muxing mode : zlib
Codec ID : S_HDMV/PGS
Codec ID/Info : Picture based subtitle format used on BDs/HD-DVDs
Duration : 2 h 17 min
Bit rate : 19.7 kb/s
Frame rate : 0.306 FPS
Count of elements : 2523
Stream size : 19.4 MiB (0%)
Title : cht
Language : Chinese
Default : No
Forced : No
Original source medium : Blu-ray

Text #3
ID : 5
ID in the original source medium : 4608 (0x1200)
Format : PGS
Muxing mode : zlib
Codec ID : S_HDMV/PGS
Codec ID/Info : Picture based subtitle format used on BDs/HD-DVDs
Duration : 2 h 15 min
Bit rate : 24.2 kb/s
Frame rate : 0.291 FPS
Count of elements : 2372
Stream size : 23.5 MiB (0%)
Title : eng
Language : English
Default : No
Forced : No
Original source medium : Blu-ray

Menu
00:00:00.000 : en:Chapter 01
00:04:47.000 : en:Chapter 02
00:16:33.000 : en:Chapter 03
00:20:51.000 : en:Chapter 04
00:28:19.000 : en:Chapter 05
00:33:41.625 : en:Chapter 06
00:40:09.000 : en:Chapter 07
00:51:47.000 : en:Chapter 08
00:56:33.000 : en:Chapter 09
01:01:51.416 : en:Chapter 10
01:08:43.625 : en:Chapter 11
01:13:15.000 : en:Chapter 12
01:18:43.833 : en:Chapter 13
01:25:10.000 : en:Chapter 14
01:33:06.000 : en:Chapter 15
01:37:25.208 : en:Chapter 16
01:48:21.625 : en:Chapter 17
01:54:15.416 : en:Chapter 18
02:05:30.000 : en:Chapter 19
02:14:16.625 : en:Chapter 20


部分资源为软字幕,移动端推荐播放器:MxPlayer,nPlayer,infuse ,其他播放器请自行尝试。

部分资源为软字幕,电脑端推荐播放器:PotPlayer,完美解码,KMPLAYER,其他播放器请自行尝试。



1 个附件 售价 大小 下载 时间

Badrinath.2011.1080p.BluRay.x264.DD.5.1-SONYHD[1LOU.ME].torrent 0 金币 42.27K 844 次 1月前

#1楼
发帖时间:2024-02-23 07:51:11   |   回复数:0
游客组