Asuka601
隐世仙人♂

[2018] [其它] [惊悚] [WEB-1080P] 相机惊魂[国语配音/中文字幕].Deadly.Still.2018.1080p.WEB-DL.H265.AAC.2Audio-DreamHD 1.46GB

-->

完整标题:相机惊魂[国语配音/中文字幕].Deadly.Still.2018.1080p.WEB-DL.H265.AAC.2Audio-DreamHD 1.46GB



◎标  题 相机惊魂
◎译  名 鬼照片 / 纪念照 / 厉可拍(台) / Foto na pamyat / Deadly Still
◎片  名 Фото на память
◎年  代 2018
◎产  地 俄罗斯
◎类  别 惊悚 / 恐怖
◎语  言 俄语
◎上映日期 2020-08-05(中国大陆网络) / 2018-06-14(俄罗斯)
◎IMDb评分 5.2/10 (1792人评价)
◎IMDb链接 https://www.imdb.com/title/tt8006426/
◎豆瓣评分 4.5/10 (531人评价)
◎豆瓣链接 https://movie.douban.com/subject/30222482/
◎片  长 80分钟
◎编  剧 维克多·邦达鲁克 Viktor Bondaryuk
◎演  员 桑扎尔·马季耶夫 Sanjar Madi
      伊琳娜·塔兰尼克 Irina Tarannik
      阿纳斯塔西娅·乌科洛娃 Anastasiya Ukolova
      伊琳娜·特米切娃 Irina Temicheva

◎简  介
    一群在网路上相识的网友,相约要去野外露营,却因一场突如其来的意外被迫在森林裡一间废弃小木屋裡过夜。在看似已成废墟的小木屋内,他们无意间找到一台神秘的底片相机,竟发现这台相机可以预知他们的死亡惨样!随著一连串骇人听闻的灾难发生,当同伴们一一死去,剩下的人必须尽快解开相机之谜,却发现更惨不忍睹的死亡在迎接著他们……

点击图片可查看大图

软字幕无法在截图上展现,HDR版本/杜比视界版本截图会出现颜色异常,请使用支持的设备播放!

##### MediaInfo ######
General
Unique ID : 269019405303156201770637334171802534892 (0xCA6340B96E73F7FE2FB02ED0ABEA03EC)
Complete name : Deadly.Still.2018.1080p.WEB-DL.H265.AAC.2Audio-DreamHD.mkv
Duration : 1 h 19 min
Overall bit rate : 2 631 kb/s

Video
ID : 1
Format : HEVC
Format/Info : High Efficiency Video Coding
Format profile : Main@L4@Main
Codec ID : V_MPEGH/ISO/HEVC
Duration : 1 h 19 min
Bit rate : 2 249 kb/s
Width : 1 920 pixels
Height : 800 pixels
Display aspect ratio : 2.40:1
Frame rate mode : Constant
Frame rate : 24.000 FPS
Color space : YUV
Chroma subsampling : 4:2:0
Bit depth : 8 bits
Bits/(Pixel*Frame) : 0.061
Stream size : 1.25 GiB (85%)
Default : Yes
Forced : No
Color range : Limited

Audio #1
ID : 2
Format : AAC LC
Format/Info : Advanced Audio Codec Low Complexity
Codec ID : A_AAC-2
Duration : 1 h 19 min
Bit rate : 192 kb/s
Channel(s) : 2 channels
Channel layout : L R
Sampling rate : 48.0 kHz
Frame rate : 46.875 FPS (1024 SPF)
Compression mode : Lossy
Stream size : 108 MiB (7%)
Title : [AAC2.0]
Language : Russian
Default : Yes
Forced : No

Audio #2
ID : 3
Format : AAC LC
Format/Info : Advanced Audio Codec Low Complexity
Codec ID : A_AAC-2
Duration : 1 h 19 min
Bit rate : 192 kb/s
Channel(s) : 2 channels
Channel layout : L R
Sampling rate : 44.1 kHz
Frame rate : 43.066 FPS (1024 SPF)
Compression mode : Lossy
Stream size : 108 MiB (7%)
Title : Mandarin [AAC2.0]
Language : Chinese
Default : No
Forced : No


部分资源为软字幕,移动端推荐播放器:MxPlayer,nPlayer,infuse ,其他播放器请自行尝试。

部分资源为软字幕,电脑端推荐播放器:PotPlayer,完美解码,KMPLAYER,其他播放器请自行尝试。



1 个附件 售价 大小 下载 时间

Deadly.Still.2018.1080p.WEB-DL.H265.AAC.2Audio-DreamHD[1LOU.ME].torrent 0 金币 6.76K 1085 次 1月前

#1楼
发帖时间:2024-02-22 20:51:52   |   回复数:1
popeye69
一代宗师
感谢楼主分享!
1月前 #2楼
游客组