Asuka601
隐世仙人♂

[2017] [其它] [喜剧] [WEB-1080P] 大坏狐狸的故事[国语配音/中文字幕].The.Big.Bad.Fox.and.Other.Tales.2017.1080p.WEB-DL.H264.AAC.2A

-->

完整标题:大坏狐狸的故事[国语配音/中文字幕].The.Big.Bad.Fox.and.Other.Tales.2017.1080p.WEB-DL.H264.AAC.2Audio-DreamHD 0.65GB



◎标  题 大坏狐狸的故事
◎译  名 谁是大坏狐(台) / 坏蛋狐狸的故事(港) / 大坏狐狸的动物童话 / 大坏狐狸与其他童话 / 大坏狐狸与其他故事 / The Big Bad Fox and Other Tales...
◎片  名 Le Grand Méchant Renard et autres contes...
◎年  代 2017
◎产  地 法国 / 比利时 / 美国
◎类  别 喜剧 / 动画 / 冒险
◎语  言 法语 / 汉语普通话
◎上映日期 2018-03-16(中国大陆) / 2017-06-15(安锡动画电影节) / 2017-06-21(法国)
◎IMDb评分 7.4/10 (3554人评价)
◎IMDb链接 https://www.imdb.com/title/tt5851904/
◎豆瓣评分 8.3/10 (96518人评价)
◎豆瓣链接 https://movie.douban.com/subject/27042405/
◎片  长 83分钟
◎导  演 本杰明·雷内 Benjamin Renner
      帕特里克·英伯特 Patrick Imbert
◎编  剧 本杰明·雷内 Benjamin Renner
      让·勒尼奥 Jean Regnaud
◎演  员 纪尧姆·达尔诺 Guillaume Darnault
      席琳·荣特 Céline Ronté
      达米安·维特卡 Damien Witecka
      安托万·苏姆斯基 Antoine Schoumsky
      卡梅尔·阿卜德萨多克 Kamel Abdessadok
      克里斯多夫·勒莫因 Christophe Lemoine
      纪尧姆·布谢德 Guillaume Bouchède
      鲍里斯·雷林格 Boris Rehlinger
      玛佳丽·罗森茨威格 Magali Rosenzweig
      让·卢·霍维茨 Jean-Loup Horwitz
      伊夫·阎 Yves Yan
      亚历山大·莫洛尼 Alexander Molony

◎简  介
    电影分为三个可爱的小故事。   一天,在风景怡人的农场里,小猪、兔子和鸭子见到了一个人类的小宝宝。负责护送小宝宝的鹈鹕拜托三只小动物将宝宝平安的送到他的人类母亲的手中,就这样,三只有些脱线的动物踏上了旅途。   大坏狐狸一心想要将肥美的母鸡当做自己的盘中餐,无奈母鸡太过强大,狐狸根本不是她的对手。既然打不过母鸡,狐狸将“魔爪”伸向了母鸡正在孵的三枚鸡蛋,狐狸决定将这三只小鸡孵出来养大之后再把他们一一吃掉。然而,三只小鸡似乎将狐狸当成了他们的妈妈,亦以为他们自己也是狐狸。   圣诞节就快要来了,农场里的动物们都欢天喜地的准备迎接圣诞老人的到来。然而,鸭子和兔子却在一场意外之中“杀死”的圣诞老人。

点击图片可查看大图

软字幕无法在截图上展现,HDR版本/杜比视界版本截图会出现颜色异常,请使用支持的设备播放!

##### MediaInfo ######
General
Unique ID : 289125328299410590236007625398056149986 (0xD98383434605ADE85864D7B28D5863E2)
Complete name : The.Big.Bad.Fox.and.Other.Tales.2017.1080p.WEB-DL.H264.AAC.2Audio-DreamHD.mkv
Duration : 1 h 22 min
Overall bit rate : 1 121 kb/s

Video
ID : 1
Format : AVC
Format/Info : Advanced Video Codec
Format profile : High@L5
Format settings : CABAC / 5 Ref Frames
Format settings, CABAC : Yes
Format settings, Reference frames : 5 frames
Codec ID : V_MPEG4/ISO/AVC
Duration : 1 h 22 min
Bit rate : 737 kb/s
Width : 1 920 pixels
Height : 1 038 pixels
Display aspect ratio : 1.85:1
Frame rate mode : Constant
Frame rate : 24.000 FPS
Color space : YUV
Chroma subsampling : 4:2:0
Bit depth : 8 bits
Scan type : Progressive
Bits/(Pixel*Frame) : 0.015
Stream size : 436 MiB (66%)
Default : Yes
Forced : No
Color range : Limited
Color primaries : BT.709
Transfer characteristics : BT.709
Matrix coefficients : BT.709

Audio #1
ID : 2
Format : AAC LC
Format/Info : Advanced Audio Codec Low Complexity
Codec ID : A_AAC-2
Duration : 1 h 22 min
Bit rate : 192 kb/s
Channel(s) : 2 channels
Channel layout : L R
Sampling rate : 44.1 kHz
Frame rate : 43.066 FPS (1024 SPF)
Compression mode : Lossy
Stream size : 114 MiB (17%)
Title : [AAC2.0]
Language : French
Default : Yes
Forced : No

Audio #2
ID : 3
Format : AAC LC
Format/Info : Advanced Audio Codec Low Complexity
Codec ID : A_AAC-2
Duration : 1 h 22 min
Bit rate : 192 kb/s
Channel(s) : 2 channels
Channel layout : L R
Sampling rate : 44.1 kHz
Frame rate : 43.066 FPS (1024 SPF)
Compression mode : Lossy
Stream size : 112 MiB (17%)
Title : Mandarin [AAC2.0]
Language : Chinese
Default : No
Forced : No


部分资源为软字幕,移动端推荐播放器:MxPlayer,nPlayer,infuse ,其他播放器请自行尝试。

部分资源为软字幕,电脑端推荐播放器:PotPlayer,完美解码,KMPLAYER,其他播放器请自行尝试。



1 个附件 售价 大小 下载 时间

The.Big.Bad.Fox.and.Other.Tales.2017.1080p.WEB-DL.H264.AAC.2Audio-DreamHD[1LOU.ME].torrent 0 金币 4.77K 1183 次 1月前

#1楼
发帖时间:2024-02-22 20:50:17   |   回复数:1
jokingcheung
超凡入圣№
谢谢分享
1月前 #2楼
游客组