Asuka601
隐世仙人♂

[2018] [欧美] [奇幻] [WEB-4K] 胡桃夹子和四个王国[国英多音轨/中文字幕/特效字幕].2018.V2.Bluray.2160p.TrueHD7.1.HDR.x265.10bit-DreamHD

-->

完整标题:胡桃夹子和四个王国[国英多音轨/中文字幕/特效字幕].2018.V2.Bluray.2160p.TrueHD7.1.HDR.x265.10bit-DreamHD 23.79GB



◎标  题 胡桃夹子和四个王国
◎译  名 胡桃夹子(港) / 胡桃钳与奇幻四国(台) / 胡桃夹子真人版
◎片  名 The Nutcracker And The Four Realms
◎年  代 2018
◎产  地 美国
◎类  别 奇幻 / 冒险
◎语  言 英语
◎上映日期 2018-11-02(中国大陆 / 美国)
◎IMDb评分 5.6/10 (35101人评价)
◎IMDb链接 https://www.imdb.com/title/tt5523010/
◎豆瓣链接 https://movie.douban.com/subject/26741061/
◎片  长 99分钟

◎简  介
    克拉拉(麦肯芝·弗依 Mackenzie Foy 饰)的母亲在她很小的时候就离开了她,留给女儿的唯一一样东西是装有无价之宝的盒子。德罗赛尔梅耶(摩根·弗里曼 Morgan Freeman 饰)是克拉拉的教父,在他举办的一场聚会上,一根神秘的金线指引着克拉拉找到了可以打开盒子的钥匙,然而,克拉拉却因此而被传送到了一个神秘的平行世界之中。   这是一个克拉拉的母亲一手打造的魔法世界,四位国王分别掌管着他们的国度,而克拉拉梦寐以求的钥匙,就掌握在其中最邪恶的一位——姜母女王(海伦·米伦 Helen Mirren 饰)的手上,她的存在让这个本来和平繁盛的世界逐渐走向分崩离析。克拉拉必须和她在这里结识的善良朋友们合作,夺回钥匙,粉碎姜母女王的统治和野心。

点击图片可查看大图

软字幕无法在截图上展现,HDR版本/杜比视界版本截图会出现颜色异常,请使用支持的设备播放!

##### MediaInfo ######
General
Unique ID : 188977026118325092736822159885436635870 (0x8E2BA6BE3C1DA8F4AAEB4E216606CADE)
Complete name : The.Nutcracker.and.the.Four.Realms.2018.V2.Bluray.2160p.TrueHD7.1.HDR.x265.10bit-DreamHD.mkv
Duration : 1 h 39 min
Overall bit rate mode : Variable
Overall bit rate : 34.3 Mb/s

Video
ID : 1
Format : HEVC
Format/Info : High Efficiency Video Coding
Format profile : Main 10@L6@Main
HDR format : SMPTE ST 2086, HDR10 compatible
Codec ID : V_MPEGH/ISO/HEVC
Duration : 1 h 39 min
Bit rate : 28.9 Mb/s
Width : 3 840 pixels
Height : 2 076 pixels
Display aspect ratio : 1.85:1
Frame rate mode : Constant
Frame rate : 23.976 (24000/1001) FPS
Color space : YUV
Chroma subsampling : 4:2:0 (Type 2)
Bit depth : 10 bits
Bits/(Pixel*Frame) : 0.151
Stream size : 20.1 GiB (84%)
Writing library : x265 3.5+100-3dae0c3cc:[Windows][GCC 12.2.0][64 bit] 10bit
Encoding settings : cpuid=1111039 / frame-threads=6 / numa-pools=64,32,0,0 / wpp / no-pmode / no-pme / no-psnr / no-ssim / log-level=2 / input-csp=1 / input-res=3840x2076 / interlace=0 / total-frames=0 / level-idc=0 / high-tier=1 / uhd-bd=0 / ref=6 / no-allow-non-conformance / repeat-headers / annexb / no-aud / no-eob / no-eos / no-hrd / info / hash=0 / temporal-layers=0 / no-open-gop / min-keyint=23 / keyint=250 / gop-lookahead=0 / bframes=14 / b-adapt=2 / b-pyramid / bframe-bias=0 / rc-lookahead=75 / lookahead-slices=8 / scenecut=40 / no-hist-scenecut / radl=0 / no-splice / no-intra-refresh / ctu=32 / min-cu-size=8 / no-rect / no-amp / max-tu-size=32 / tu-inter-depth=1 / tu-intra-depth=1 / limit-tu=0 / rdoq-level=2 / dynamic-rd=0.00 / no-ssim-rd / signhide / no-tskip / nr-intra=0 / nr-inter=0 / no-constrained-intra / no-strong-intra-smoothing / max-merge=3 / limit-refs=1 / no-limit-modes / me=3 / subme=7 / merange=64 / temporal-mvp / no-frame-dup / no-hme / weightp / weightb / no-analyze-src-pics / deblock=0:0 / no-sao / no-sao-non-deblock / rd=4 / selective-sao=0 / no-early-skip / rskip / no-fast-intra / no-tskip-fast / no-cu-lossless / b-intra / no-splitrd-skip / rdpenalty=2 / psy-rd=3.00 / psy-rdoq=4.80 / no-rd-refine / no-lossless / cbqpoffs=0 / crqpoffs=0 / rc=crf / crf=14.1 / qcomp=0.60 / qpstep=4 / stats-write=0 / stats-read=0 / ipratio=1.40 / pbratio=1.30 / aq-mode=1 / aq-strength=1.00 / cutree / zone-count=0 / no-strict-cbr / qg-size=32 / no-rc-grain / qpmax=69 / qpmin=0 / no-const-vbv / sar=0 / overscan=0 / videoformat=5 / range=0 / colorprim=9 / transfer=16 / colormatrix=9 / chromaloc=1 / chromaloc-top=2 / chromaloc-bottom=2 / display-window=0 / master-display=G(13250,34500)B(7500,3000)R(34000,16000)WP(15635,16450)L(40000000,50) / cll=183,149 / min-luma=0 / max-luma=1023 / log2-max-poc-lsb=8 / vui-timing-info / vui-hrd-info / slices=1 / no-opt-qp-pps / no-opt-ref-list-length-pps / no-multi-pass-opt-rps / scenecut-bias=0.05 / no-opt-cu-delta-qp / aq-motion / hdr10 / hdr10-opt / no-dhdr10-opt / no-idr-recovery-sei / analysis-reuse-level=0 / analysis-save-reuse-level=0 / analysis-load-reuse-level=0 / scale-factor=0 / refine-intra=0 / refine-inter=0 / refine-mv=1 / refine-ctu-distortion=0 / no-limit-sao / ctu-info=0 / no-lowpass-dct / refine-analysis-type=0 / copy-pic=1 / max-ausize-factor=1.0 / no-dynamic-refine / no-single-sei / no-hevc-aq / no-svt / no-field / qp-adaptation-range=1.00 / scenecut-aware-qp=0conformance-window-offsets / right=0 / bottom=0 / decoder-max-rate=0 / no-vbv-live-multi-pass / no-mcstf / no-sbrc
Default : Yes
Forced : No
Color range : Limited
Color primaries : BT.2020
Transfer characteristics : PQ
Matrix coefficients : BT.2020 non-constant
Mastering display color primaries : Display P3
Mastering display luminance : min: 0.0050 cd/m2, max: 4000 cd/m2
Maximum Content Light Level : 183 cd/m2
Maximum Frame-Average Light Level : 149 cd/m2

Audio #1
ID : 2
ID in the original source medium : 4352 (0x1100)
Format : MLP FBA 16-ch
Format/Info : Meridian Lossless Packing FBA with 16-channel presentation
Commercial name : Dolby TrueHD with Dolby Atmos
Codec ID : A_TRUEHD
Duration : 1 h 39 min
Bit rate mode : Variable
Bit rate : 4 942 kb/s
Maximum bit rate : 7 977 kb/s
Channel(s) : 8 channels
Channel layout : L R C LFE Ls Rs Lb Rb
Sampling rate : 48.0 kHz
Frame rate : 1 200.000 FPS (40 SPF)
Bit depth : 24 bits
Compression mode : Lossless
Stream size : 3.43 GiB (14%)
Title : English
Language : English
Default : Yes
Forced : No
Original source medium : Blu-ray
Number of dynamic objects : 13
Bed channel count : 1 channel
Bed channel configuration : LFE

Audio #2
ID : 3
ID in the original source medium : 4354 (0x1102)
Format : AC-3
Format/Info : Audio Coding 3
Commercial name : Dolby Digital
Codec ID : A_AC3
Duration : 1 h 39 min
Bit rate mode : Constant
Bit rate : 192 kb/s
Channel(s) : 2 channels
Channel layout : L R
Sampling rate : 48.0 kHz
Frame rate : 31.250 FPS (1536 SPF)
Compression mode : Lossy
Stream size : 136 MiB (1%)
Title : Mandarin
Language : Chinese
Service kind : Complete Main
Default : No
Forced : No
Original source medium : Blu-ray

Text #1
ID : 4
ID in the original source medium : 4769 (0x12A1)
Format : PGS
Muxing mode : zlib
Codec ID : S_HDMV/PGS
Codec ID/Info : Picture based subtitle format used on BDs/HD-DVDs
Duration : 1 h 33 min
Bit rate : 56.3 kb/s
Frame rate : 0.545 FPS
Count of elements : 3060
Stream size : 37.7 MiB (0%)
Title : CHS
Language : Chinese
Default : Yes
Forced : No
Original source medium : Blu-ray

Text #2
ID : 5
ID in the original source medium : 4770 (0x12A2)
Format : PGS
Muxing mode : zlib
Codec ID : S_HDMV/PGS
Codec ID/Info : Picture based subtitle format used on BDs/HD-DVDs
Duration : 1 h 32 min
Bit rate : 56.9 kb/s
Frame rate : 0.551 FPS
Count of elements : 3058
Stream size : 37.6 MiB (0%)
Title : CHT
Language : Chinese
Default : No
Forced : No
Original source medium : Blu-ray

Text #3
ID : 6
ID in the original source medium : 4771 (0x12A3)
Format : PGS
Muxing mode : zlib
Codec ID : S_HDMV/PGS
Codec ID/Info : Picture based subtitle format used on BDs/HD-DVDs
Duration : 1 h 32 min
Bit rate : 77.9 kb/s
Frame rate : 0.576 FPS
Count of elements : 3195
Stream size : 51.5 MiB (0%)
Title : CHS/ENG
Language : Chinese
Default : No
Forced : No
Original source medium : Blu-ray

Text #4
ID : 7
ID in the original source medium : 4772 (0x12A4)
Format : PGS
Muxing mode : zlib
Codec ID : S_HDMV/PGS
Codec ID/Info : Picture based subtitle format used on BDs/HD-DVDs
Duration : 1 h 32 min
Bit rate : 77.9 kb/s
Frame rate : 0.576 FPS
Count of elements : 3195
Stream size : 51.5 MiB (0%)
Title : CHT/ENG
Language : Chinese
Default : No
Forced : No
Original source medium : Blu-ray

Text #5
ID : 8
ID in the original source medium : 4768 (0x12A0)
Format : PGS
Muxing mode : zlib
Codec ID : S_HDMV/PGS
Codec ID/Info : Picture based subtitle format used on BDs/HD-DVDs
Duration : 1 h 36 min
Bit rate : 36.7 kb/s
Frame rate : 0.463 FPS
Count of elements : 2686
Stream size : 25.4 MiB (0%)
Title : ENG
Language : English
Default : No
Forced : No
Original source medium : Blu-ray

Menu
00:00:00.000 : en:Chapter 01
00:08:39.101 : en:Chapter 02
00:16:46.922 : en:Chapter 03
00:25:37.536 : en:Chapter 04
00:34:20.892 : en:Chapter 05
00:43:28.397 : en:Chapter 06
00:48:31.617 : en:Chapter 07
00:56:07.405 : en:Chapter 08
00:59:09.337 : en:Chapter 09
01:04:57.268 : en:Chapter 10
01:11:49.722 : en:Chapter 11
01:18:10.519 : en:Chapter 12
01:22:04.002 : en:Chapter 13
01:30:06.317 : en:Chapter 14


部分资源为软字幕,移动端推荐播放器:MxPlayer,nPlayer,infuse ,其他播放器请自行尝试。

部分资源为软字幕,电脑端推荐播放器:PotPlayer,完美解码,KMPLAYER,其他播放器请自行尝试。



1 个附件 售价 大小 下载 时间

2018.V2.Bluray.2160p.TrueHD7.1.HDR.x265.10bit-DreamHD[1LOU.ME].torrent 0 金币 62.74K 1645 次 1月前

#1楼
发帖时间:2024-02-22 20:49:28   |   回复数:1
feung18
武林盟主
感激摟主發佈!
1月前 #2楼
游客组