fg603603
一代宗师

[更 早] [其他] [剧情] [BD-720P] 人间昆虫记 Tierra.1996.720p.BluRay.x264-USURY 5.55GB

-->

帖子完整标题:人间昆虫记 Tierra.1996.720p.BluRay.x264-USURY 5.55GB



◎译  名 人间昆虫记/Earth/大地
◎片  名 Tierra
◎年  代 1996
◎产  地 西班牙
◎类  别 剧情 / 爱情
◎语  言 西班牙语
◎上映日期 1999-10-30
◎豆瓣评分 7.3/10 from 481 users
◎豆瓣链接 https://movie.douban.com/subject/1302480/
◎片  长 125 分钟
◎导  演 胡里奥·密谭 Julio Medem
◎编  剧 胡里奥·密谭 Julio Medem
◎主  演 卡梅洛·戈麦斯 Carmelo Gómez
      埃玛·苏亚雷斯 Emma Suárez
      卡拉·埃莱哈尔德 Karra Elejalde
      西尔克 Silke
      南乔·诺沃 Nancho Novo
      塞克玛·布拉斯科 Txema Blasco
      Pepe Viyuela Pepe Viyuela
      Vicente Haro Vicente Haro

◎标  签 西班牙 | JulioMedem | 西班牙电影 | 胡里奥·密谭 | Julio_Medem | 1996 | 爱情 | 密谭

◎简  介

  剧情梗概:剧情介绍一位昆虫专家,被派往一个种葡萄酿酒但发生虫患的地区,他对当地一位温情少妇和放浪少女产生感情,最后放弃少妇,与放浪少女远走高飞。

◎获奖情况

  第49届戛纳电影节 ?(1996)
  主竞赛单元金棕榈奖(提名) 胡里奥·密谭

Video
ID : 1
Format : AVC
Format/Info : Advanced Video Codec
Format profile : [email protected]
Format settings : CABAC / 11 Ref Frames
Format settings, CABAC : Yes
Format settings, Reference frames : 11 frames
Codec ID : V_MPEG4/ISO/AVC
Duration : 2 h 3 min
Bit rate : 5 761 kb/s
Width : 1 280 pixels
Height : 546 pixels
Display aspect ratio : 2.35:1
Frame rate mode : Constant
Frame rate : 23.976 (24000/1001/189150) FPS
Color space : YUV
Chroma subsampling : 4:2:0
Bit depth : 8 bits
Scan type : Progressive
Bits/(Pixel*Frame) : 0.344
Stream size : 4.97 GiB (90%)
Writing library : x264 core 161 r3053 c347e7a
Encoding settings : cabac=1 / ref=11 / deblock=1:-3:-3 / analyse=0x3:0x133 / me=umh / subme=10 / psy=1 / psy_rd=1.00:0.15 / mixed_ref=1 / me_range=24 / chroma_me=1 / trellis=2 / 8x8dct=1 / cqm=0 / deadzone=21,11 / fast_pskip=1 / chroma_qp_offset=-3 / threads=17 / lookahead_threads=2 / sliced_threads=0 / nr=0 / decimate=1 / interlaced=0 / bluray_compat=0 / constrained_intra=0 / bframes=8 / b_pyramid=2 / b_adapt=2 / b_bias=0 / direct=3 / weightb=1 / open_gop=0 / weightp=2 / keyint=250 / keyint_min=23 / scenecut=40 / intra_refresh=0 / rc_lookahead=60 / rc=crf / mbtree=1 / crf=20.0 / qcomp=0.60 / qpmin=0 / qpmax=69 / qpstep=4 / ip_ratio=1.40 / aq=3:0.50
Language : English
Default : Yes
Forced : No

Audio
ID : 2
Format : AC-3
Format/Info : Audio Coding 3
Commercial name : Dolby Digital
Codec ID : A_AC3
Duration : 2 h 3 min
Bit rate mode : Constant
Bit rate : 640 kb/s
Channel(s) : 6 channels
Channel layout : L R C LFE Ls Rs
Sampling rate : 48.0 kHz
Frame rate : 31.250 FPS (1536 SPF)
Compression mode : Lossy
Stream size : 565 MiB (10%)
Language : Spanish
Service kind : Complete Main
Default : Yes
Forced : No

Text #1
ID : 3
Format : UTF-8
Codec ID : S_TEXT/UTF8
Codec ID/Info : UTF-8 Plain Text
Duration : 1 h 59 min
Bit rate : 38 b/s
Count of elements : 1294
Stream size : 33.7 KiB (0%)
Title : English
Language : English
Default : Yes
Forced : Yes

Text #2
ID : 4
Format : PGS
Muxing mode : zlib
Codec ID : S_HDMV/PGS
Codec ID/Info : Picture based subtitle format used on BDs/HD-DVDs
Duration : 1 h 59 min
Bit rate : 31.4 kb/s
Count of elements : 2588
Stream size : 26.8 MiB (0%)
Title : English
Language : English
Default : No
Forced : No





1 个附件 售价 大小 下载 时间

Tierra.1996.720p.BluRay.x264-USURY.torrent 0 金币 14.58K 903 次 1月前

#1楼
发帖时间:2021-11-28 20:28:00   |   回复数:1
popeye69
一派掌门
谢谢楼主分享。
1月前 #2楼
游客组