fg603603
一代宗师

[2020] [其他] [爱情] [BD-720P] 小鱼/鱼的记忆 Little.Fish.2020.720p.BluRay.x264.DTS-MT 4.04GB

-->

帖子完整标题:小鱼/鱼的记忆 Little.Fish.2020.720p.BluRay.x264.DTS-MT 4.04GB



◎译  名 小鱼/鱼的记忆
◎片  名 Little Fish
◎年  代 2020
◎产  地 美国,加拿大
◎类  别 爱情 / 科幻
◎语  言 英语
◎上映日期 2020-10-01(纽波特海滩电影节) / 2021-02-05(美国)
◎豆瓣评分 6.7/10 from 295 users
◎豆瓣链接 https://movie.douban.com/subject/30483011/
◎片  长 101分钟
◎导  演 查德·哈蒂根 Chad Hartigan
◎编  剧 马特森·汤姆林 Mattson Tomlin / 阿贾·加贝尔 Aja Gabel
◎主  演 奥利维亚·库克 Olivia Cooke
      杰克·奥康奈尔 Jack O'Connell
      斯蒂芬妮·索科琳斯基 Stéphanie Sokolinski
      劳尔·卡斯提洛 Raúl Castillo
      戴维·列农 David Lennon
      托比·哈格雷夫 Toby Hargrave
      杰夫·桑卡 Jeff Sanca
      马尔科姆·博丁顿 Malcolm Boddington
      卡门·摩尔 Carmen Moore
      西蒙·朗莫尔 Simon Longmore
      科维西·阿梅扬 Kwesi Ameyaw
      凯特·德·利瓦 Kat de Lieva
      安吉拉·穆尔 Angela Moore
      约翰·埃梅特·特雷西 John Emmet Tracy

◎标  签 爱情 | 科幻 | 美国 | 2021 | 2020 | 美国电影 | 奥利维亚·库克 | 杰克·奥康奈尔

◎简  介

  影片以阿贾贝尔的短篇小说为基础,剧本由马特森·汤姆林创作。故事围绕一段发生在大规模传染病爆发后世界里的爱情,很容易使观众与当下的疫情环境产生共鸣。裘德(奥康奈尔饰)因疫情患上了一种失忆症,他的新婚妻子艾玛(库克饰)和裘德不得不面对这个痛苦的现实,他们尝试了各种方法来保存他们之间那些浪漫的记忆。

Video
ID : 1
Format : AVC
Format/Info : Advanced Video Codec
Format profile : [email protected]
Format settings : CABAC / 12 Ref Frames
Format settings, CABAC : Yes
Format settings, Reference frames : 12 frames
Codec ID : V_MPEG4/ISO/AVC
Duration : 1 h 41 min
Bit rate : 4 197 kb/s
Width : 1 280 pixels
Height : 536 pixels
Display aspect ratio : 2.40:1
Frame rate mode : Constant
Frame rate : 23.976 (24000/1001/189150) FPS
Color space : YUV
Chroma subsampling : 4:2:0
Bit depth : 8 bits
Scan type : Progressive
Bits/(Pixel*Frame) : 0.255
Stream size : 2.97 GiB (74%)
Writing library : x264 core 157 r2938 2b00a84 [email protected] Mod
Encoding settings : cabac=1 / ref=12 / deblock=1:-3:-3 / analyse=0x3:0x133 / me=umh / subme=10 / psy=1 / psy_rd=1.05:0.00 / mixed_ref=1 / me_range=32 / chroma_me=1 / trellis=2 / 8x8dct=1 / cqm=0 / deadzone=21,11 / fast_pskip=0 / chroma_qp_offset=-2 / threads=12 / lookahead_threads=2 / sliced_threads=0 / nr=0 / decimate=0 / interlaced=0 / bluray_compat=0 / constrained_intra=0 / bframes=8 / b_pyramid=2 / b_adapt=2 / b_bias=0 / direct=3 / weightb=1 / open_gop=0 / weightp=2 / keyint=250 / keyint_min=24 / scenecut=40 / intra_refresh=0 / rc_lookahead=250 / rc=crf / mbtree=0 / crf=16.8 / qcomp=0.60 / qpmin=0 / qpmax=69 / qpstep=4 / vbv_maxrate=62500 / vbv_bufsize=78125 / crf_max=0.0 / nal_hrd=none / filler=0 / ip_ratio=1.30 / pb_ratio=1.20 / aq=3:0.80
Language : English
Default : Yes
Forced : No
Color range : Limited
Color primaries : BT.709
Matrix coefficients : BT.709

Audio
ID : 2
Format : DTS
Format/Info : Digital Theater Systems
Codec ID : A_DTS
Duration : 1 h 41 min
Bit rate mode : Constant
Bit rate : 1 509 kb/s
Channel(s) : 6 channels
Channel layout : C L R Ls Rs LFE
Sampling rate : 48.0 kHz
Frame rate : 93.750 FPS (512 SPF)
Bit depth : 24 bits
Compression mode : Lossy
Stream size : 1.07 GiB (26%)
Language : English
Default : Yes
Forced : No

Text #1
ID : 3
Format : UTF-8
Codec ID : S_TEXT/UTF8
Codec ID/Info : UTF-8 Plain Text
Duration : 1 h 34 min
Bit rate : 56 b/s
Count of elements : 1536
Stream size : 39.4 KiB (0%)
Language : English
Default : Yes
Forced : No

Text #2
ID : 4
Format : UTF-8
Codec ID : S_TEXT/UTF8
Codec ID/Info : UTF-8 Plain Text
Duration : 1 h 36 min
Bit rate : 64 b/s
Count of elements : 1800
Stream size : 45.3 KiB (0%)
Title : SDH
Language : English
Default : No
Forced : No

Menu
00:00:00.000 : en:Chapter 01
00:10:24.040 : en:Chapter 02
00:16:22.481 : en:Chapter 03
00:25:39.413 : en:Chapter 04
00:33:33.970 : en:Chapter 05
00:41:38.204 : en:Chapter 06
00:49:30.426 : en:Chapter 07
00:58:19.371 : en:Chapter 08
01:06:47.337 : en:Chapter 09
01:16:03.559 : en:Chapter 10
01:26:47.077 : en:Chapter 11
01:36:09.597 : en:Chapter 12





1 个附件 售价 大小 下载 时间

Little.Fish.2020.720p.BluRay.x264.DTS-MT.torrent 0 金币 20.79K 350 次 1月前

#1楼
发帖时间:2021-11-28 19:05:15   |   回复数:1
popeye69
一派掌门
谢谢楼主分享。
1月前 #2楼
游客组