squallzhao
一代宗师

[更 早] [欧美] [剧情] [BD-1080P] 疑云风波/神秘油画 The.Thin.Man.Goes.Home.1944.1080p.BluRay.x264.FLAC.2.0-HANDJOB 7.49GB

-->

帖子完整标题:疑云风波/神秘油画 The.Thin.Man.Goes.Home.1944.1080p.BluRay.x264.FLAC.2.0-HANDJOB 7.49GB



◎译  名 疑云风波/神秘油画
◎片  名 The Thin Man Goes Home
◎年  代 1945
◎产  地 美国
◎类  别 剧情 / 喜剧 / 爱情 / 悬疑 / 家庭 / 犯罪
◎语  言 英语
◎上映日期 1945-01-25
◎豆瓣评分 7.6/10 from 129 users
◎豆瓣链接 https://movie.douban.com/subject/1298913/
◎片  长 100 分钟
◎导  演 理查德·索普 Richard Thorpe
◎编  剧 达希尔·哈米特 Dashiell Hammett / 德怀特·泰勒 Dwight Taylor / 哈里·库尼兹 Harry Kurnitz / 罗伯特·里斯金 Robert Riskin
◎主  演 威廉·鲍威尔 William Powell
      玛娜·洛伊 Myrna Loy
      保罗兰顿 Paul Langton
      弗兰克贾奎特 Frank Jaquet
      哈里·海登 Harry Hayden
      凯萨琳·麦克劳德 Catherine McLeod
      唐纳德麦克布赖德 Donald MacBride
      罗伯特·霍曼斯 Robert Homans
      Edward Gargan Edward Gargan
      Connie Gilchrist Connie Gilchrist
      Sol Gorss Sol Gorss
      查尔斯·霍尔顿 Charles Halton
      亚瑟·霍尔 Arthur Hohl
      Joseph J. Greene Joseph J. Greene
      米切尔·刘易斯 Mitchell Lewis
      迈克·马祖尔凯 Mike Mazurki
      Anthony Warde Anthony Warde
      迈纳·沃森 Minor Watson
      Marjorie Wood Marjorie Wood
      约翰·文格拉夫 John Wengraf
      Joe Yule Joe Yule
      雷·蒂尔 Ray Teal
      Virginia Sale Virginia Sale
      安妮塔·夏浦-博尔斯特 Anita Sharp-Bolster
      罗伯特·埃米特·奥康纳 Robert Emmett O'Connor
      李·费尔普斯 Lee Phelps
      Garry Owen Garry Owen
      伊塔·麦克丹尼尔 Etta McDaniel
      唐纳德·米克 Donald Meek
      汤姆·法登 Tom Fadden
      萨姆·弗林特 Sam Flint
      哈里·达文波特 Harry Davenport
      约瑟夫·奎汉 Joseph Crehan
      列昂埃姆斯 Leon Ames
      道格拉斯·莫罗 Douglas Morrow
      海伦·文逊 Helen Vinson
      爱德华·布罗菲 Edward Brophy
      简·阿克 Jean Acker
      劳埃德·科里根 Lloyd Corrigan
      克拉伦斯·缪斯 Clarence Muse
      格洛丽亚·德黑文 Gloria DeHaven
      露塞尔·沃特森 Lucile Watson
      欧文·培根 Irving Bacon
      莫里斯·安克鲁姆 Morris Ankrum
      奥利弗布莱克 Oliver Blake
      雷克斯·埃文斯 Rex Evans
      海伦·艾比罗克 Helen Eby-Rock
      萨拉·爱德华兹 Sarah Edwards
      汤姆·杜根 Tom Dugan
      多罗蒂·福特 Dorothy Ford
      汤姆·狄龙 Tom Dillon
      Lucile Browne Lucile Browne
      Clancy Cooper Clancy Cooper
      Nora Cecil Nora Cecil
      Ralph Brooks Ralph Brooks
      Chester Clute Chester Clute
      沃利·卡斯尔 Wally Cassell
      Dick Botiller Dick Botiller
      安妮·里维尔 Anne Revere

◎标  签 美国 | 喜剧 | WilliamPowell | 1940s | 悬疑 | 瘦子系列 | 美国电影 | MyrnaLoy

◎简  介

  暂无相关剧情介绍

Video
ID : 1
Format : AVC
Format/Info : Advanced Video Codec
Format profile : [email protected]
Format settings : CABAC / 5 Ref Frames
Format settings, CABAC : Yes
Format settings, Reference frames : 5 frames
Codec ID : V_MPEG4/ISO/AVC
Duration : 1 h 40 min
Bit rate : 10.4 Mb/s
Width : 1 480 pixels
Height : 1 080 pixels
Display aspect ratio : 1.370
Frame rate mode : Constant
Frame rate : 23.976 (24000/1001/189150) FPS
Color space : YUV
Chroma subsampling : 4:2:0
Bit depth : 8 bits
Scan type : Progressive
Bits/(Pixel*Frame) : 0.271
Stream size : 7.31 GiB (98%)
Writing library : x264 core 157 r2935 545de2f
Encoding settings : cabac=1 / ref=5 / deblock=1:-3:-3 / analyse=0x3:0x133 / me=umh / subme=10 / psy=1 / psy_rd=1.00:0.00 / mixed_ref=1 / me_range=32 / chroma_me=1 / trellis=2 / 8x8dct=1 / cqm=0 / deadzone=21,11 / fast_pskip=0 / chroma_qp_offset=-2 / threads=18 / lookahead_threads=4 / sliced_threads=0 / nr=0 / decimate=0 / interlaced=0 / bluray_compat=0 / constrained_intra=0 / bframes=16 / b_pyramid=2 / b_adapt=2 / b_bias=0 / direct=3 / weightb=1 / open_gop=0 / weightp=1 / keyint=240 / keyint_min=24 / scenecut=40 / intra_refresh=0 / rc_lookahead=60 / rc=crf / mbtree=0 / crf=18.8 / qcomp=0.60 / qpmin=0 / qpmax=69 / qpstep=4 / vbv_maxrate=62500 / vbv_bufsize=78125 / crf_max=0.0 / nal_hrd=none / filler=0 / ip_ratio=1.40 / pb_ratio=1.30 / aq=2:1.00
Default : Yes
Forced : No
Color range : Limited
Color primaries : BT.709
Transfer characteristics : BT.709
Matrix coefficients : BT.709

Audio
ID : 2
Format : FLAC
Format/Info : Free Lossless Audio Codec
Codec ID : A_FLAC
Duration : 1 h 40 min
Bit rate mode : Variable
Bit rate : 259 kb/s
Channel(s) : 2 channels
Sampling rate : 48.0 kHz
Frame rate : 11.719 FPS (4096 SPF)
Bit depth : 16 bits
Compression mode : Lossless
Stream size : 187 MiB (2%)
Writing library : libFLAC 1.2.1 (UTC 2007-09-17)
Language : English
Default : Yes
Forced : No

Text #1
ID : 3
Format : UTF-8
Codec ID : S_TEXT/UTF8
Codec ID/Info : UTF-8 Plain Text
Duration : 1 h 38 min
Bit rate : 93 b/s
Count of elements : 2351
Stream size : 67.5 KiB (0%)
Language : English
Default : No
Forced : No

Text #2
ID : 4
Format : UTF-8
Codec ID : S_TEXT/UTF8
Codec ID/Info : UTF-8 Plain Text
Duration : 1 h 38 min
Bit rate : 95 b/s
Count of elements : 2458
Stream size : 69.1 KiB (0%)
Title : SDH
Language : English
Default : No
Forced : No

Menu
00:00:00.000 : :Chapter 1
00:01:37.264 : :Chapter 2
00:06:35.896 : :Chapter 3
00:10:27.961 : :Chapter 4
00:13:57.587 : :Chapter 5
00:19:39.387 : :Chapter 6
00:24:52.950 : :Chapter 7
00:29:28.517 : :Chapter 8
00:31:50.367 : :Chapter 9
00:35:18.742 : :Chapter 10
00:38:58.670 : :Chapter 11
00:43:24.102 : :Chapter 12
00:46:30.830 : :Chapter 13
00:51:47.396 : :Chapter 14
00:55:18.398 : :Chapter 15
01:00:13.235 : :Chapter 16
01:04:56.893 : :Chapter 17
01:08:22.599 : :Chapter 18
01:13:12.889 : :Chapter 19
01:17:47.163 : :Chapter 20
01:21:28.801 : :Chapter 21
01:26:13.460 : :Chapter 22
01:30:37.349 : :Chapter 23
01:34:59.736 : :Chapter 24
01:40:20.598 : :Chapter 25





1 个附件 售价 大小 下载 时间

The.Thin.Man.Goes.Home.1944.1080p.BluRay.x264.FLAC.2.0-HANDJOB.torrent 0 金币 19.36K 371 次 1月前

#1楼
发帖时间:2021-11-28 15:26:30   |   回复数:1
popeye69
一派掌门
谢谢楼主分享。
1月前 #2楼
游客组