topgood
一派掌门

[更 早] [其他] [剧情] [BD-1080P] 八部半 Eight.and.a.Half.1963.REMASTERED.1080p.BluRay.x264-USURY 16.11GB

-->

帖子完整标题:八部半 Eight.and.a.Half.1963.REMASTERED.1080p.BluRay.x264-USURY 16.11GB



◎译  名 八部半/Eight and a Half/Federico Fellini's 8 1/2/八又二分之一
◎片  名 8?
◎年  代 1963
◎产  地 意大利,法国
◎类  别 剧情
◎语  言 意大利语,法语,英语,德语
◎上映日期 1963-02-16(意大利)
◎豆瓣评分 8.6/10 from 46314 users
◎豆瓣链接 https://movie.douban.com/subject/1361276/
◎片  长 138分钟
◎导  演 费德里科·费里尼 Federico Fellini
◎编  剧 费德里科·费里尼 Federico Fellini / 恩尼奥·弗拉亚诺 Ennio Flaiano / 图里奥·皮内利 Tullio Pinelli / 布鲁内洛·龙迪 Brunello Rondi
◎主  演 马塞洛·马斯楚安尼 Marcello Mastroianni
      克劳迪娅·卡汀娜 Claudia Cardinale
      阿努克·艾梅 Anouk Aimée
      桑德拉·米洛 Sandra Milo
      罗塞拉·法鲁克 Rossella Falk
      芭芭拉·斯蒂尔 Barbara Steele
      玛德琳·勒博 Madeleine Lebeau
      卡特丽娜·波拿托 Caterina Boratto
      埃达·盖尔 Eddra Gale
      圭多·阿尔贝蒂 Guido Alberti
      Jean Rougeul Jean Rougeul
      马里奥·皮苏 Mario Pisu
      米诺·多罗 Mino Doro
      Nadia Sanders Nadia Sanders
      Georgia Simmons Georgia Simmons
      Rossella Como Rossella Como
      马克贺伦 Mark Herron
      Marisa Colomber Marisa Colomber
      Neil Robinson Neil Robinson
      Eugene Walter Eugene Walter
      Gilda Dahlberg Gilda Dahlberg
      Francesco Rigamonti Francesco Rigamonti
      Giuditta Rissone Giuditta Rissone
      安尼巴莱·宁基 Annibale Ninchi
      安东尼奥·阿夸 Antonio Acqua
      玛利亚·安东涅塔·贝卢齐 Maria Antonietta Beluzzi
      Mathilda Calnan Mathilda Calnan
      朱利奥·卡利 Giulio Calì
      佛朗哥·卡拉乔洛 Franco Caracciolo
      Olimpia Cavalli Olimpia Cavalli
      Sonia Gessner Sonia Gessner
      约翰·卡尔森 John Karlsen
      Roberto Nicolosi Roberto Nicolosi
      波利多尔 Polidor
      尼诺·罗塔 Nino Rota
      John Stacy John Stacy
      玛利亚·特德斯奇 Maria Tedeschi
      艾迪·韦瑟 Edy Vessel
      Edward Fleming Edward Fleming

◎标  签 意大利 | 费里尼 | 意大利电影 | 经典 | 1963 | 费德里科·费里尼 | FedericoFellini | 剧情

◎简  介

  电影导演圭多(马塞洛·马斯楚安尼 Marcello Mastroianni 饰)在完成了一部影片之后感到筋疲力尽,他来到一处疗养地休息,同时开始构思下一部电影。他受到恶梦的困扰,精神不振,灵感也陷入停滞。他让情妇卡拉(桑德拉·米洛 Sandra Milo 饰)也来到疗养地和他作伴,但卡拉的到来反而增添了他的烦恼。此时,充满朝气的年轻女郎克劳迪娅(克劳迪娅·卡汀娜 Claudia Cardinale 饰)的出现,令圭多压抑的世界乍现出一抹亮色。然而随着圭多妻子路易莎(阿努克·艾梅 Anouk Aimée 饰)以及许多电影圈人士纷纷来到疗养地,圭多不堪忍受个人感情生活的混乱与电影拍摄的双重压力,他的精神危机愈演愈烈,梦境与幻觉不断侵入他的现实生活……
  
  本片荣获1964年奥斯卡最佳外语片和最佳服装设计(黑白片)两项大奖。

◎获奖情况

  第36届奥斯卡金像奖 ?(1964)
  最佳导演(提名) 费德里科·费里尼
  最佳原创剧本(提名) 图里奥·皮内利?/?恩尼奥·弗拉亚诺?/?布鲁内洛·龙迪?/?费德里科·费里尼
  最佳外语片
  黑白片最佳艺术指导和布景(提名) 皮耶罗·格拉尔迪
  黑白片最佳服装设计 皮耶罗·格拉尔迪

Video
ID : 1
Format : AVC
Format/Info : Advanced Video Codec
Format profile : [email protected]
Format settings : CABAC / 4 Ref Frames
Format settings, CABAC : Yes
Format settings, Reference frames : 4 frames
Codec ID : V_MPEG4/ISO/AVC
Duration : 2 h 19 min
Bit rate : 15.8 Mb/s
Width : 1 920 pixels
Height : 1 038 pixels
Display aspect ratio : 1.85:1
Frame rate mode : Constant
Frame rate : 23.976 (24000/1001/189150) FPS
Color space : YUV
Chroma subsampling : 4:2:0
Bit depth : 8 bits
Scan type : Progressive
Bits/(Pixel*Frame) : 0.331
Stream size : 15.4 GiB (96%)
Writing library : x264 core 164 r3075 66a5bc1
Encoding settings : cabac=1 / ref=4 / deblock=1:-3:-3 / analyse=0x3:0x133 / me=umh / subme=10 / psy=1 / psy_rd=1.00:0.15 / mixed_ref=1 / me_range=24 / chroma_me=1 / trellis=2 / 8x8dct=1 / cqm=0 / deadzone=21,11 / fast_pskip=1 / chroma_qp_offset=-3 / threads=18 / lookahead_threads=3 / sliced_threads=0 / nr=0 / decimate=1 / interlaced=0 / bluray_compat=0 / constrained_intra=0 / bframes=8 / b_pyramid=2 / b_adapt=2 / b_bias=0 / direct=3 / weightb=1 / open_gop=0 / weightp=2 / keyint=250 / keyint_min=23 / scenecut=40 / intra_refresh=0 / rc_lookahead=60 / rc=crf / mbtree=1 / crf=18.5 / qcomp=0.60 / qpmin=0 / qpmax=69 / qpstep=4 / ip_ratio=1.40 / aq=3:0.50
Language : English
Default : Yes
Forced : No

Audio #1
ID : 2
Format : FLAC
Format/Info : Free Lossless Audio Codec
Codec ID : A_FLAC
Duration : 2 h 19 min
Bit rate mode : Variable
Bit rate : 635 kb/s
Channel(s) : 1 channel
Channel layout : C
Sampling rate : 48.0 kHz
Frame rate : 11.719 FPS (4096 SPF)
Bit depth : 24 bits
Compression mode : Lossless
Stream size : 634 MiB (4%)
Writing library : libFLAC 1.2.1 (UTC 2007-09-17)
Language : Italian
Default : Yes
Forced : No

Audio #2
ID : 3
Format : AAC LC
Format/Info : Advanced Audio Codec Low Complexity
Codec ID : A_AAC-2
Duration : 2 h 19 min
Bit rate : 62.1 kb/s
Channel(s) : 1 channel
Channel layout : C
Sampling rate : 48.0 kHz
Frame rate : 46.875 FPS (1024 SPF)
Compression mode : Lossy
Delay relative to video : 9 ms
Stream size : 61.9 MiB (0%)
Title : English Commentary by Gideon Bachmann and Antonio Monda
Language : English
Default : No
Forced : No

Text #1
ID : 4
Format : UTF-8
Codec ID : S_TEXT/UTF8
Codec ID/Info : UTF-8 Plain Text
Duration : 2 h 11 min
Bit rate : 65 b/s
Count of elements : 1790
Stream size : 63.1 KiB (0%)
Title : English
Language : English
Default : Yes
Forced : Yes

Text #2
ID : 5
Format : PGS
Muxing mode : zlib
Codec ID : S_HDMV/PGS
Codec ID/Info : Picture based subtitle format used on BDs/HD-DVDs
Duration : 2 h 11 min
Bit rate : 9 398 b/s
Count of elements : 3580
Stream size : 8.87 MiB (0%)
Title : English
Language : English
Default : No
Forced : No

Menu
00:00:00.000 : en:00:00:00.000
00:04:02.784 : en:00:04:02.784
00:09:19.934 : en:00:09:19.934
00:13:17.714 : en:00:13:17.714
00:20:54.587 : en:00:20:54.587
00:24:01.774 : en:00:24:01.774
00:29:27.933 : en:00:29:27.933
00:36:44.494 : en:00:36:44.494
00:40:22.378 : en:00:40:22.378
00:44:24.829 : en:00:44:24.829
00:49:34.346 : en:00:49:34.346
00:53:52.396 : en:00:53:52.396
00:56:12.369 : en:00:56:12.369
00:59:06.543 : en:00:59:06.543
01:05:19.499 : en:01:05:19.499
01:08:42.285 : en:01:08:42.285
01:14:32.635 : en:01:14:32.635
01:19:24.218 : en:01:19:24.218
01:26:05.577 : en:01:26:05.577
01:29:50.010 : en:01:29:50.010
01:33:24.224 : en:01:33:24.224
01:39:03.229 : en:01:39:03.229
01:47:19.224 : en:01:47:19.224
01:57:07.687 : en:01:57:07.687
02:03:00.331 : en:02:03:00.331
02:08:09.932 : en:02:08:09.932
02:16:58.544 : en:02:16:58.544





1 个附件 售价 大小 下载 时间

Eight.and.a.Half.1963.REMASTERED.1080p.BluRay.x264-USURY.torrent 0 金币 21.00K 952 次 2天前

#1楼
发帖时间:2021-10-14 09:34:28   |   回复数:0
游客组