q3r3
一代宗师

[更 早] [欧美] [喜剧] [BD-1080P] 凤还巢 The.Bride.Comes.Home.1935.1080p.BluRay.x264.FLAC.2.0-NOGRP 7.77GB

-->

帖子完整标题:凤还巢 The.Bride.Comes.Home.1935.1080p.BluRay.x264.FLAC.2.0-NOGRP 7.77GB



◎译  名 凤还巢
◎片  名 The Bride Comes Home
◎年  代 1935
◎产  地 美国
◎类  别 喜剧 / 爱情
◎语  言 英语
◎上映日期 1936-04-27
◎豆瓣评分 /10 from 0 users
◎豆瓣链接 https://movie.douban.com/subject/3788274/
◎片  长 83 分钟
◎导  演 韦斯利·鲁格尔斯 Wesley Ruggles
◎编  剧 克劳德·比尼恩 Claude Binyon / Elisabeth Sanxay Holding Elisabeth Sanxay Holding
◎主  演 汤姆·肯尼迪 Tom Kennedy
      Jerry Mandy Jerry Mandy
      唐纳德·米克 Donald Meek
      Kate MacKenna Kate MacKenna
      Esther Michelson Esther Michelson
      Alexander Pollard Alexander Pollard
      C.L. Sherwood C.L. Sherwood
      西里尔·环 Cyril Ring
      Charles West Charles West
      Edward Gargan Edward Gargan
      Tom Hanlon Tom Hanlon
      理查德·卡尔 Richard Carle
      William Arnold William Arnold
      威廉姆·科利尔 William Collier Sr.
      克劳黛·考尔白 Claudette Colbert
      弗莱德·麦克莫瑞 Fred MacMurray
      埃德加·肯尼迪 Edgar Kennedy
      罗伯特·杨 Robert Young
      约翰尼·阿瑟 Johnny Arthur
      布鲁克斯·贝内迪克特 Brooks Benedict
      A.S. 'Pop' Byron A.S. 'Pop' Byron
      Jimmy Conlin Jimmy Conlin
      埃迪·邓恩 Eddie Dunn

◎标  签 罗伯特·杨 | 克劳黛·考尔白 | —1930s | #SC

◎简  介

  A penniless socialite is hired by two young men as a front in their plan to start a magazine. Soon, however, they find themselves more interested in her than in their publishing venture.

Video
ID : 1
Format : AVC
Format/Info : Advanced Video Codec
Format profile : [email protected]
Format settings : CABAC / 5 Ref Frames
Format settings, CABAC : Yes
Format settings, Reference frames : 5 frames
Codec ID : V_MPEG4/ISO/AVC
Duration : 1 h 23 min
Bit rate : 13.1 Mb/s
Width : 1 464 pixels
Height : 1 080 pixels
Display aspect ratio : 4:3
Frame rate mode : Constant
Frame rate : 23.976 (24000/1001/189150) FPS
Color space : YUV
Chroma subsampling : 4:2:0
Bit depth : 8 bits
Scan type : Progressive
Bits/(Pixel*Frame) : 0.345
Stream size : 7.61 GiB (98%)
Writing library : x264 core 160 r3009 4c9b076
Encoding settings : cabac=1 / ref=5 / deblock=1:-3:-3 / analyse=0x3:0x133 / me=umh / subme=11 / psy=1 / psy_rd=1.02:0.00 / mixed_ref=1 / me_range=32 / chroma_me=1 / trellis=2 / 8x8dct=1 / cqm=0 / deadzone=21,11 / fast_pskip=0 / chroma_qp_offset=-2 / threads=34 / lookahead_threads=8 / sliced_threads=0 / nr=0 / decimate=0 / interlaced=0 / bluray_compat=0 / constrained_intra=0 / bframes=16 / b_pyramid=2 / b_adapt=2 / b_bias=0 / direct=3 / weightb=1 / open_gop=0 / weightp=2 / keyint=250 / keyint_min=23 / scenecut=40 / intra_refresh=0 / rc_lookahead=250 / rc=crf / mbtree=0 / crf=19.0 / qcomp=0.60 / qpmin=0 / qpmax=69 / qpstep=4 / vbv_maxrate=62500 / vbv_bufsize=78125 / crf_max=0.0 / nal_hrd=none / filler=0 / ip_ratio=1.30 / pb_ratio=1.20 / aq=3:0.65
Language : English
Default : Yes
Forced : No
Color range : Limited
Color primaries : BT.709
Matrix coefficients : BT.709

Audio
ID : 2
Format : FLAC
Format/Info : Free Lossless Audio Codec
Codec ID : A_FLAC
Duration : 1 h 23 min
Bit rate mode : Variable
Bit rate : 255 kb/s
Channel(s) : 2 channels
Channel layout : L R
Sampling rate : 48.0 kHz
Frame rate : 11.719 FPS (4096 SPF)
Bit depth : 16 bits
Compression mode : Lossless
Delay relative to video : 11 s 0 ms
Stream size : 152 MiB (2%)
Writing library : libFLAC 1.2.1 (UTC 2007-09-17)
Language : English
Default : Yes
Forced : No

Text #1
ID : 3
Format : UTF-8
Codec ID : S_TEXT/UTF8
Codec ID/Info : UTF-8 Plain Text
Duration : 1 h 20 min
Bit rate : 81 b/s
Count of elements : 1425
Stream size : 47.9 KiB (0%)
Title : SRT
Language : English
Default : Yes
Forced : No

Text #2
ID : 4
Format : PGS
Muxing mode : zlib
Codec ID : S_HDMV/PGS
Codec ID/Info : Picture based subtitle format used on BDs/HD-DVDs
Duration : 1 h 20 min
Bit rate : 48.4 kb/s
Count of elements : 2362
Stream size : 27.7 MiB (0%)
Language : English
Default : No
Forced : No

Menu
00:00:00.000 : Chapter 1
00:10:30.797 : Chapter 2
00:16:19.520 : Chapter 3
00:23:42.463 : Chapter 4
00:34:11.258 : Chapter 5
00:42:09.277 : Chapter 6
00:51:27.876 : Chapter 7
01:00:40.345 : Chapter 8
01:13:14.098 : Chapter 9





1 个附件 售价 大小 下载 时间

The.Bride.Comes.Home.1935.1080p.BluRay.x264.FLAC.2.0-NOGRP.torrent 0 金币 20.06K 301 次 10天前

#1楼
发帖时间:2021-07-21 18:15:49   |   回复数:0
游客组