原生系统
一派掌门

[2022] [港台] [流行] [MV/LIVE] 把我唱给你听——刘德华.2022.抖音线上直播演唱会(X264/mp4/高码/10.1GB)

-->


◎译  名 Sing Me To You

◎片  名 把我唱给你听

◎年  代 2022

◎产  地 中国大陆

◎语  言 汉语普通话

◎上映日期 2022-09-03(中国大陆)


◎简  介 


  刘德华「把我唱给你听」抖音专场线上直播。


曲目:


01. 笨小孩


02. 如果你是我的傳說 


03. 情深的一句 


04. 友誼歷久一樣濃 


05. 影帝無用 


06. 冰雨


07. 來生緣


08. 兄弟不懷疑 


09. 男人哭吧不是罪 


10. 如果有一天


11. 天天想你 


12. 心肝寶貝 


13. 你是我一生中最大的驕傲 


14. 愛你一萬年


15. 17歲 


16. 請你莫忘我


General


Complete name               : 把我唱给你听-刘德华抖音直播.Sing.Me.To.You-Andy.Lau.2022.1080P.WEB-DL.X264.AAC-Vampire.mp4

Format                      : MPEG-4

Format profile              : Base Media

Codec ID                    : isom (isom/iso2/avc1/mp41)

File size                   : 10.1 GiB

Duration                    : 2 h 55 min

Overall bit rate mode       : Constant

Overall bit rate            : 8 266 kb/s

Movie name                  : 把我唱给你听-刘德华抖音直播/Sing.Me.To.You-Andy.Lau

Album                       : 抖音直播系列

Album/Performer             : 刘德华(Andy Lau)

Performer                   : Vampire

Genre                       : 中国大陆

Recorded date               : 2022

Copyright                   : 警告:严禁将任何作品用于商业性质活动,所有制作作品仅限于测试宽带之用,请于下载后24小时内删除。本人不承担任何法律后果!喜欢本作品请购买正版!!!

Comment                     : Vampire制作分享作品


Video

ID                          : 1

Format                      : AVC

Format/Info                 : Advanced Video Codec

Format profile              : [email protected]

Format settings             : CABAC / 4 Ref Frames

Format settings, CABAC      : Yes

Format settings, Reference  : 4 frames

Format settings, GOP        : M=4, N=50

Codec ID                    : avc1

Codec ID/Info               : Advanced Video Coding

Duration                    : 2 h 55 min

Source duration             : 2 h 55 min

Bit rate mode               : Constant

Bit rate                    : 8 003 kb/s

Width                       : 1 920 pixels

Height                      : 1 080 pixels

Display aspect ratio        : 16:9

Frame rate mode             : Constant

Frame rate                  : 25.000 FPS

Color space                 : YUV

Chroma subsampling          : 4:2:0

Bit depth                   : 8 bits

Scan type                   : Progressive

Bits/(Pixel*Frame)          : 0.154

Stream size                 : 9.42 GiB (93%)

Source stream size          : 9.82 GiB (97%)

Codec configuration box     : avcC


Audio

ID                          : 2

Format                      : AAC LC

Format/Info                 : Advanced Audio Codec Low Complexity

Codec ID                    : mp4a-40-2

Duration                    : 2 h 55 min

Bit rate mode               : Constant

Bit rate                    : 253 kb/s

Channel(s)                  : 2 channels

Channel layout              : L R

Sampling rate               : 48.0 kHz

Frame rate                  : 46.875 FPS (1024 SPF)

Compression mode            : Lossy

Stream size                 : 318 MiB (3%)

Language                    : Chinese

Default                     : Yes


本人发布的种子请使用专业BT下载工具:

UT,Bitcomet,qBittorrent,Xdown开启上传后再下载!!!

使用迅雷或网盘离线可能会没速度!!!


视频的网盘资源均修改了视频后缀(如mp4或mkv)修改为.PDF,用以混淆官方视听!
并且加密了文件名,设置了独有的解压密码,请使用WinRAR解压,使用好压或其他可能会出错!!

网盘版所有压缩包下载完毕后解压第一个包即可全部解压(有些可能有解压密码),解压后自行将后缀名“PDF”修改为“mp4或者mkv”后即可正常播放!!!


已完结剧集不再分集打包上传,整体打包后分卷,无法单独下载某一集,需要全部下载后一起解压,敬请知晓!!!
请各位下载的坛友先保存至自己的网盘,然后再进行下载!
不要直接在线观看或者解压,否则会很快被网盘官方发觉并和谐!!

网盘版资源一旦和谐,皆不会免费补档,请谨慎举报资源!!!


请下载完成的朋友自觉做种一段时间,小水管出种不易,且下且珍惜,谢谢!!!



度盘地址:https://pan.baidu.com/s/1gRLb4qDZ0-aDYm_5qmhclA

提取密码:gxfc

#1楼
发帖时间:2022-09-06 15:28:10   |   回复数:7
ashensnake
武林高手
感谢楼主分享资源
8月前 #2楼
jackie864
小有名气
感谢楼主分享资源
8月前 #3楼
luocheng7052
武林高手
多谢楼主分享!
8月前 #4楼
tao369123
小有名气
苦逼的我没有网盘的VIP,如果来个种子就给力了
8月前 #5楼
BANGJIANLIU
小有名气
希望可以出个纯享版本,把聊天去掉,主持人的水平一般般,有点尴尬。
8月前 #6楼
hwarang2000
小有名气
手机里没装抖音,结束了才知道,谢谢楼主~好人一生平安
8月前 #7楼
aaronTan
武林高手
搞这么大为啥?网络版根本没那么大,又不是制作公司的原文件,人家的又不止10G这么小。将文件二次编辑加码率,升至4K.8K都可以.但意义不大
8月前 #8楼
游客组