BILL36
隐世仙人♂

[2024] [大陆] [WEB-4K] 爆梗脱口秀[第01集][国语配音/中文字幕].Ha.Ha.Maker.S01.2024.2160p.WEB-DL.H265.AAC-LelveTV 0.27GB

-->

完整标题:爆梗脱口秀[第01集][国语配音/中文字幕].Ha.Ha.Maker.S01.2024.2160p.WEB-DL.H265.AAC-LelveTV 0.27GB



◎标  题 爆梗脱口秀
◎年  代 2024
◎产  地 中国大陆
◎语  言 汉语普通话
◎IMDb链接 https://www.imdb.com/title//
◎豆瓣链接 https://movie.douban.com/subject/36822693/
◎演  员 李雪琴 Xueqin Li
      王勉 Mian Wang
      徐志胜 Zhisheng Xu
      何广智 Guangzhi He
      庞博 Bo Pang
      鸟鸟

◎简  介
    爆梗脱口秀,金句天天有~

部分资源为软字幕,移动端推荐播放器:MxPlayer,nPlayer,infuse ,其他播放器请自行尝试。

部分资源为软字幕,电脑端推荐播放器:PotPlayer,完美解码,KMPLAYER,其他播放器请自行尝试。

下载端推荐纯BT下载软件:qBittorrent,Bitcomet,uTorrent ,其他下载软件请自行尝试。不支持吸血迅雷。

##### MediaInfo ######
General
Complete name : Ha.Ha.Maker.S01E01.2024.2160p.WEB-DL.H265.AAC-LelveTV.mp4
Duration : 21 min 41 s
Overall bit rate mode : Variable
Overall bit rate : 1 784 kb/s

Video
ID : 1
Format : HEVC
Format/Info : High Efficiency Video Coding
Format profile : Main@L5@Main
Codec ID : hev1
Codec ID/Info : High Efficiency Video Coding
Duration : 21 min 41 s
Source duration : 21 min 41 s
Bit rate : 1 653 kb/s
Width : 3 840 pixels
Height : 2 160 pixels
Display aspect ratio : 16:9
Frame rate mode : Variable
Frame rate : 25.000 FPS
Minimum frame rate : 24.993 FPS
Maximum frame rate : 25.007 FPS
Color space : YUV
Chroma subsampling : 4:2:0
Bit depth : 8 bits
Bits/(Pixel*Frame) : 0.008
Stream size : 256 MiB (93%)
Source stream size : 256 MiB (93%)
Writing library : Tencent-V265-1.6.9.1-p1k184g16lh64f4ra1.
Color range : Limited
Color primaries : BT.709
Transfer characteristics : BT.709
Matrix coefficients : BT.709
Codec configuration box : hvcC

Audio
ID : 2
Format : AAC LC
Format/Info : Advanced Audio Codec Low Complexity
Codec ID : mp4a-40-2
Duration : 21 min 41 s
Bit rate mode : Variable
Bit rate : 125 kb/s
Maximum bit rate : 129 kb/s
Channel(s) : 2 channels
Channel layout : L R
Sampling rate : 48.0 kHz
Frame rate : 46.875 FPS (1024 SPF)
Compression mode : Lossy
Stream size : 19.4 MiB (7%)
Default : Yes
Alternate group : 1




1 个附件 售价 大小 下载 时间

Ha.Ha.Maker.S01.2024.2160p.WEB-DL.H265.AAC-LelveTV[1LOU.ME].torrent 0 金币 3.17K 350 次 8天前

#1楼
发帖时间:2024-05-16 01:03:49   |   回复数:1
BANGJIANLIU
小有名气
大佬,2到11的有吗?
4天前 #2楼
游客组