BILL36
隐世仙人♂

[2021] [大陆] [真人秀] [WEB-4K] 守心人 第2季[全5集][国语配音/中文字幕].The.One.Who.Does.the.Best.S02.2021.2160p.WEB-DL.H265.AAC

-->

完整标题:守心人 第2季[全5集][国语配音/中文字幕].The.One.Who.Does.the.Best.S02.2021.2160p.WEB-DL.H265.AAC-LelveTV 2.87GB



◎标  题 守心人 第2季
◎年  代 2021
◎产  地 中国大陆
◎类  别 真人秀
◎语  言 汉语普通话
◎IMDb链接 https://www.imdb.com/title//
◎豆瓣链接 https://movie.douban.com/subject/35459056/

◎简  介
    守心人是一档纪实类访谈节目,第二季选取了不同领域、从事不同职业的人物,主要讲述他们在不同的领域里,孜孜以求,执着坚守,成为行业里不可或缺的人才的成长过程。

部分资源为软字幕,移动端推荐播放器:MxPlayer,nPlayer,infuse ,其他播放器请自行尝试。

部分资源为软字幕,电脑端推荐播放器:PotPlayer,完美解码,KMPLAYER,其他播放器请自行尝试。

下载端推荐纯BT下载软件:qBittorrent,Bitcomet,uTorrent ,其他下载软件请自行尝试。不支持吸血迅雷。

##### MediaInfo ######
General
Complete name : The.One.Who.Does.the.Best.S02E01.2021.2160p.WEB-DL.H265.AAC-LelveTV.mp4
Duration : 25 min 29 s
Overall bit rate mode : Variable
Overall bit rate : 3 520 kb/s

Video
ID : 1
Format : HEVC
Format/Info : High Efficiency Video Coding
Format profile : Main@L5@Main
Codec ID : hev1
Codec ID/Info : High Efficiency Video Coding
Duration : 25 min 29 s
Source duration : 25 min 29 s
Bit rate : 3 452 kb/s
Width : 3 840 pixels
Height : 2 160 pixels
Display aspect ratio : 16:9
Frame rate mode : Variable
Frame rate : 25.000 FPS
Minimum frame rate : 24.993 FPS
Maximum frame rate : 25.007 FPS
Color space : YUV
Chroma subsampling : 4:2:0
Bit depth : 8 bits
Bits/(Pixel*Frame) : 0.017
Stream size : 629 MiB (98%)
Source stream size : 629 MiB (98%)
Codec configuration box : hvcC

Audio
ID : 2
Format : AAC LC SBR
Format/Info : Advanced Audio Codec Low Complexity with Spectral Band Replication
Commercial name : HE-AAC
Format settings : Implicit
Codec ID : mp4a-40-2
Duration : 25 min 29 s
Bit rate mode : Variable
Bit rate : 62.7 kb/s
Maximum bit rate : 64.8 kb/s
Channel(s) : 2 channels
Channel layout : L R
Sampling rate : 48.0 kHz
Frame rate : 23.438 FPS (2048 SPF)
Compression mode : Lossy
Stream size : 11.4 MiB (2%)
Default : Yes
Alternate group : 1


点击图片可查看大图

软字幕无法在截图上展现,HDR版本/杜比视界版本截图会出现颜色异常,请使用支持的设备播放!



1 个附件 售价 大小 下载 时间

The.One.Who.Does.the.Best.S02.2021.2160p.WEB-DL.H265.AAC-LelveTV[1LOU.ME].torrent 0 金币 10.03K 154 次 1月前

#1楼
发帖时间:2024-04-19 23:58:57   |   回复数:0
游客组