BILL36
隐世仙人♂

[2024] [大陆] [剧情] [WEB-4K] 孔雀圣使请动心[全42集][国语配音/中文字幕].Peacock.In.Wonoerland.S01.2024.2160p.WEB-DL.H265.EDR.DD

-->

完整标题:孔雀圣使请动心[全42集][国语配音/中文字幕].Peacock.In.Wonoerland.S01.2024.2160p.WEB-DL.H265.EDR.DDP2.0-LelveTV 79.62GB



◎标  题 孔雀圣使请动心
◎译  名 孔雀归来又逢君‎ / 孔雀城下小青衣
◎年  代 2024
◎产  地 中国大陆
◎类  别 剧情 / 喜剧 / 爱情
◎语  言 汉语普通话
◎IMDb链接 https://www.imdb.com/title//
◎豆瓣链接 https://movie.douban.com/subject/36178643/
◎导  演 刘瀚洋 Hanyang Liu
◎演  员 周峻纬 Junwei Zhou
      张楚寒 Chuhan Zhang
      刘一宏 Yihong Liu
      刘禹潞飞 LuFei LiuYu

◎简  介
    非遗民俗学博主花泥(张楚寒饰)打开一个古董魔术箱,穿越千年来到了一个神秘的时空成了祭祀的神女孔雀,又误打误撞陷入了神秘的追杀风波,偶遇少年宰相李牧阳(周峻纬饰)。一场祭祀大典后,花霓被少宰大人投入大牢,为了脱身,她不得不和少宰李牧阳斗智斗勇。没想到,斗来斗去,反倒迫得少宰大人成为她的贴身保镖,她的爽文女主人设,终于降临了。

部分资源为软字幕,移动端推荐播放器:MxPlayer,nPlayer,infuse ,其他播放器请自行尝试。

部分资源为软字幕,电脑端推荐播放器:PotPlayer,完美解码,KMPLAYER,其他播放器请自行尝试。

下载端推荐纯BT下载软件:qBittorrent,Bitcomet,uTorrent ,其他下载软件请自行尝试。不支持吸血迅雷。

##### MediaInfo ######
General
Unique ID : 276776158855657255657270006769867663610 (0xD03926337ED8A9FB283EC04BE6EDA8FA)
Complete name : Peacock.In.Wonoerland.S01E01.2024.2160p.WEB-DL.H265.EDR.DDP2.0-LelveTV.mkv
Duration : 19 min 55 s
Overall bit rate : 13.9 Mb/s

Video
ID : 1
Format : HEVC
Format/Info : High Efficiency Video Coding
Format profile : Main@L5@Main
Codec ID : V_MPEGH/ISO/HEVC
Duration : 19 min 55 s
Bit rate : 13.6 Mb/s
Width : 3 840 pixels
Height : 1 920 pixels
Display aspect ratio : 2.000
Frame rate mode : Constant
Frame rate : 25.000 FPS
Color space : YUV
Chroma subsampling : 4:2:0
Bit depth : 8 bits
Bits/(Pixel*Frame) : 0.074
Stream size : 1.89 GiB (98%)
Language : Chinese
Default : Yes
Forced : No

Audio #1
ID : 2
Format : AAC LC
Format/Info : Advanced Audio Codec Low Complexity
Codec ID : A_AAC-2
Duration : 19 min 55 s
Bit rate : 192 kb/s
Channel(s) : 2 channels
Channel layout : L R
Sampling rate : 44.1 kHz
Frame rate : 43.066 FPS (1024 SPF)
Compression mode : Lossy
Stream size : 27.0 MiB (1%)
Default : No
Forced : No

Audio #2
ID : 3
Format : E-AC-3
Format/Info : Enhanced AC-3
Commercial name : Dolby Digital Plus
Codec ID : A_EAC3
Duration : 19 min 55 s
Bit rate mode : Constant
Bit rate : 96.0 kb/s
Channel(s) : 2 channels
Channel layout : L R
Sampling rate : 48.0 kHz
Frame rate : 31.250 FPS (1536 SPF)
Compression mode : Lossy
Stream size : 13.7 MiB (1%)
Title : zh-ch [Dolby Digital Plus 2.0]
Language : Chinese
Service kind : Complete Main
Default : Yes
Forced : No


点击图片可查看大图

软字幕无法在截图上展现,HDR版本/杜比视界版本截图会出现颜色异常,请使用支持的设备播放!



1 个附件 售价 大小 下载 时间

Peacock.In.Wonoerland.S01.2024.2160p.WEB-DL.H265.EDR.DDP2.0-LelveTV[1LOU.ME].torrent 0 金币 205.80K 847 次 1月前

#1楼
发帖时间:2024-04-19 23:57:50   |   回复数:0
游客组