BILL36
隐世仙人♂

[2021] [大陆] [其它] [WEB-1080P] 复工[全20集][国语配音/中文字幕].Fu.Gong.S01.2021.1080p.WEB-DL.H264.AAC-LelveTV 8.44GB

-->

完整标题:复工[全20集][国语配音/中文字幕].Fu.Gong.S01.2021.1080p.WEB-DL.H264.AAC-LelveTV 8.44GB



◎标  题 复工
◎年  代 2021
◎产  地 中国大陆
◎类  别 纪录片
◎语  言 汉语普通话
◎IMDb链接 https://www.imdb.com/title//
◎豆瓣链接 https://movie.douban.com/subject/35372601/
◎导  演 王强 Qiang Wang
◎演  员 石班瑜 Banyu Shi
      涂月秀 Yuexiu Tu

◎简  介
    2020年,新冠疫情席卷全球   对世界经济发展产生了重大影响   疫情之后,随着国内企业复产复工   很多新问题又摆在了很多企业和个人的眼前   每个人都在大时代的背景下,演绎着不同的故事   故事里,有迎难而上的进取精神   也有乐观豁达的人生态度   更有触动人心的真情流露   这些故事故事,终将成为这个时代独有的印记   这一切值得我们记录和思考

部分资源为软字幕,移动端推荐播放器:MxPlayer,nPlayer,infuse ,其他播放器请自行尝试。

部分资源为软字幕,电脑端推荐播放器:PotPlayer,完美解码,KMPLAYER,其他播放器请自行尝试。

下载端推荐纯BT下载软件:qBittorrent,Bitcomet,uTorrent ,其他下载软件请自行尝试。不支持吸血迅雷。

##### MediaInfo ######
General
Complete name : Fu.Gong.S01E01.2021.1080p.WEB-DL.H264.AAC-LelveTV.mp4
Duration : 29 min 2 s
Overall bit rate mode : Variable
Overall bit rate : 2 238 kb/s

Video
ID : 1
Format : AVC
Format/Info : Advanced Video Codec
Format profile : High@L4
Format settings : CABAC / 4 Ref Frames
Format settings, CABAC : Yes
Format settings, Reference frames : 4 frames
Codec ID : avc1
Codec ID/Info : Advanced Video Coding
Duration : 29 min 2 s
Source duration : 29 min 2 s
Bit rate : 2 138 kb/s
Width : 1 920 pixels
Height : 1 080 pixels
Display aspect ratio : 16:9
Frame rate mode : Variable
Frame rate : 25.000 FPS
Minimum frame rate : 24.993 FPS
Maximum frame rate : 25.007 FPS
Color space : YUV
Chroma subsampling : 4:2:0
Bit depth : 8 bits
Scan type : Progressive
Bits/(Pixel*Frame) : 0.041
Stream size : 444 MiB (96%)
Source stream size : 444 MiB (96%)
Writing library : ptw-1.0.116 rcm-vary vbl-0 vwk
Color range : Limited
Color primaries : BT.709
Transfer characteristics : BT.709
Matrix coefficients : BT.709
Codec configuration box : avcC

Audio
ID : 2
Format : AAC LC
Format/Info : Advanced Audio Codec Low Complexity
Codec ID : mp4a-40-2
Duration : 29 min 2 s
Bit rate mode : Variable
Bit rate : 93.4 kb/s
Maximum bit rate : 97.1 kb/s
Channel(s) : 2 channels
Channel layout : L R
Sampling rate : 48.0 kHz
Frame rate : 46.875 FPS (1024 SPF)
Compression mode : Lossy
Stream size : 19.4 MiB (4%)
Default : Yes
Alternate group : 1


点击图片可查看大图

软字幕无法在截图上展现,HDR版本/杜比视界版本截图会出现颜色异常,请使用支持的设备播放!



1 个附件 售价 大小 下载 时间

Fu.Gong.S01.2021.1080p.WEB-DL.H264.AAC-LelveTV[1LOU.ME].torrent 0 金币 25.09K 301 次 1月前

#1楼
发帖时间:2024-04-19 23:54:51   |   回复数:0
游客组