BILL36
隐世仙人♂

[2024] [大陆] [剧情] [WEB-1080P] 城中之城[第19集][国语音轨/简繁英字幕].City.of.the.City.S01.2024.1080p.IQ.WEB-DL.H264.AAC-BlackT

-->

完整标题:城中之城[第19集][国语音轨/简繁英字幕].City.of.the.City.S01.2024.1080p.IQ.WEB-DL.H264.AAC-BlackTV 0.58GB



◎标  题 城中之城
◎译  名 City of the City
◎年  代 2024
◎产  地 中国大陆
◎类  别 剧情
◎语  言 汉语普通话
◎IMDb链接 https://www.imdb.com/title/tt27951268/
◎豆瓣链接 https://movie.douban.com/subject/35209732/
◎导  演 滕华涛 Hua-Tao Teng
◎编  剧 卞智弘 Zhihong Bian
      吴楠 Nan Wu
      田雨 Yu Tian
      滕肖澜 Xiaolan Teng
◎演  员 白宇帆 Yufan Bai
      于和伟 Hewei Yu
      夏梦 Meng Xia
      隆妮 Longni Cheng
      王骁 Xiao Wang
      冯嘉怡 Jiayi Feng
      王劲松 Jinsong Wang
      杨子姗 Zishan Yang
      陈瑾 Jin Chen
      涂松岩 Songyan Tu
      章申 Shen Zhang
      张建亚 Jianya Zhang
      姚一奇 Yiqi Yao
      刘思远
      冷纪元 Jiyuan Leng
      封新天 Xintian Feng
      都兰 Du Lan
      邢岷山 Minshan Xing
      李颖 Ying Li
      节冰 Bing Jie
      李洪涛 Hongtao Li
      顾宇峰 Yufeng Gu
      虞金泽 Jinze Yu
      董晴 Qing Dong
      高蓓蓓 Beibei Gao
      曲高位 Gaowei Qu
      韦奕波 Yibo Wei
      张衣 Yi Zhang
      彭赛 Sai Peng
      杨雨婷 Yuting Yang
      文静 Jing Wen
      严永瑄 Yongxuan Yan
      许国栋 Guodong Xu
      姚卓君 Zhuojun Yao
      刘若嫣 Ruoyan Liu
      牛北壬 Beiren Niu
      吴金鑫 Jinxin Wu

◎简  介
    该剧根据滕肖澜同名长篇小说改编,以大都市金融城为背景,展现了银行新人陶无忌(白宇帆 饰)、支行副行长赵辉(于和伟 饰)以及审计负责人苗彻(王骁 饰)之间围绕利益与初心的一场激烈对决。在这场情与法的较量中,陶无忌逐渐成长为新一代金融业秩序的守护者。

部分资源为软字幕,移动端推荐播放器:MxPlayer,nPlayer,infuse ,其他播放器请自行尝试。

部分资源为软字幕,电脑端推荐播放器:PotPlayer,完美解码,KMPLAYER,其他播放器请自行尝试。

下载端推荐纯BT下载软件:qBittorrent,Bitcomet,uTorrent ,其他下载软件请自行尝试。不支持吸血迅雷。

##### MediaInfo ######
General
Unique ID : 126949222570299868868225424902594480181 (0x5F8187EA247F4ABC7F098308AB3BC835)
Complete name : City.of.the.City.S01E19.2024.1080p.IQ.WEB-DL.H264.AAC-BlackTV.mkv
Duration : 45 min 27 s
Overall bit rate : 1 812 kb/s

Video
ID : 1
Format : AVC
Format/Info : Advanced Video Codec
Format profile : High@L4
Format settings : CABAC / 3 Ref Frames
Format settings, CABAC : Yes
Format settings, Reference frames : 3 frames
Codec ID : V_MPEG4/ISO/AVC
Duration : 45 min 26 s
Bit rate : 1 618 kb/s
Width : 1 920 pixels
Height : 1 080 pixels
Display aspect ratio : 16:9
Frame rate mode : Constant
Frame rate : 24.972 FPS
Original frame rate : 25.000 FPS
Color space : YUV
Chroma subsampling : 4:2:0
Bit depth : 8 bits
Scan type : Progressive
Bits/(Pixel*Frame) : 0.031
Stream size : 526 MiB (89%)
Language : Chinese
Default : Yes
Forced : No
Color range : Limited
Color primaries : BT.709
Transfer characteristics : BT.709
Matrix coefficients : BT.709

Audio
ID : 2
Format : AAC LC
Format/Info : Advanced Audio Codec Low Complexity
Codec ID : A_AAC-2
Duration : 45 min 27 s
Bit rate : 192 kb/s
Channel(s) : 2 channels
Channel layout : L R
Sampling rate : 44.1 kHz
Frame rate : 43.066 FPS (1024 SPF)
Compression mode : Lossy
Stream size : 62.3 MiB (11%)
Title : Mandarin [AAC2.0]
Language : Chinese
Default : No
Forced : No

Text #1
ID : 3
Format : UTF-8
Codec ID : S_TEXT/UTF8
Codec ID/Info : UTF-8 Plain Text
Duration : 41 min 30 s
Bit rate : 61 b/s
Frame rate : 0.360 FPS
Count of elements : 898
Stream size : 18.6 KiB (0%)
Title : Simplified Chinese
Language : Chinese
Default : Yes
Forced : No

Text #2
ID : 4
Format : UTF-8
Codec ID : S_TEXT/UTF8
Codec ID/Info : UTF-8 Plain Text
Duration : 41 min 17 s
Bit rate : 55 b/s
Frame rate : 0.345 FPS
Count of elements : 854
Stream size : 16.8 KiB (0%)
Title : Traditional Chinese
Language : Chinese
Default : No
Forced : No

Text #3
ID : 5
Format : UTF-8
Codec ID : S_TEXT/UTF8
Codec ID/Info : UTF-8 Plain Text
Duration : 42 min 50 s
Bit rate : 71 b/s
Frame rate : 0.350 FPS
Count of elements : 899
Stream size : 22.6 KiB (0%)
Title : English
Language : English
Default : No
Forced : No


点击图片可查看大图

软字幕无法在截图上展现,HDR版本/杜比视界版本截图会出现颜色异常,请使用支持的设备播放!



1 个附件 售价 大小 下载 时间

City.of.the.City.S01.2024.1080p.IQ.WEB-DL.H264.AAC-BlackTV[1LOU.ME].torrent 0 金币 3.88K 336 次 1月前

#1楼
发帖时间:2024-04-19 23:50:04   |   回复数:0
游客组