BILL36
隐世仙人♂

[2024] [大陆] [剧情] [WEB-4K] 又见逍遥[第33-34集][国语配音/中文字幕].Sword.and.Fairy.S01.2024.2160p.WEB-DL.H265.EDR.AAC-Blac

-->

完整标题:又见逍遥[第33-34集][国语配音/中文字幕].Sword.and.Fairy.S01.2024.2160p.WEB-DL.H265.EDR.AAC-BlackTV 8.81GB



◎标  题 又见逍遥
◎译  名 仙剑 / 仙剑奇侠传
◎年  代 2024
◎产  地 中国大陆
◎类  别 剧情 / 爱情 / 古装
◎语  言 汉语普通话
◎IMDb链接 https://www.imdb.com/title/tt31962679/
◎豆瓣链接 https://movie.douban.com/subject/35314844/
◎导  演 杨龙 Long Yang
◎编  剧 李喆 Zhe Li
◎演  员 何与 Yu He
      杨雨潼 Yutong Yang
      徐好 Hao Xu
      李川 Chuan Li
      胡意旋 Yixuan Hu
      叶盛佳 Shengjia Ye
      王劲松 Jinsong Wang
      吴樾 Yue Wu
      丁笑滢 Xiaoying Ding
      田雨 Yu Tian
      邱心志 Hsin-chih Chiu
      曾黎 Li Zeng
      张子健 Zijian Zhang
      杨昆 Kun Yang
      斓曦 Lanxi
      宗峰岩 Fengyan Zong
      张磊 Lei Zhang
      王成思 Chengsi Wang
      汤晶媚 Jingmei Tang
      郑湫泓 Jade Zheng
      汤梦佳 Melody Tang
      甘婷婷 Tingting Gan
      修庆 Qing Xiu
      郭军 Jun Guo
      张弓 Gong Zhang
      杨明娜 Minna Yang
      张春仲 Chunzhong Zhang
      阮圣文 Shengwen Ruan
      肖添仁 Tianren Xiao

◎简  介
    心怀大侠梦的店小⼆李逍遥(何与 饰),机缘巧合结识女娲后人赵灵儿(杨雨潼 饰),与其结伴寻找能破除天下旱灾的水灵珠,途中先后结识欢喜冤家林月如(徐好 饰),文弱书生刘晋元(李川 饰)等意气相投的伙伴,几人历经艰险寻找灵珠,⼀举粉碎妄图毁天灭地拜月教主(王劲松 饰)的惊天阴谋。

部分资源为软字幕,移动端推荐播放器:MxPlayer,nPlayer,infuse ,其他播放器请自行尝试。

部分资源为软字幕,电脑端推荐播放器:PotPlayer,完美解码,KMPLAYER,其他播放器请自行尝试。

下载端推荐纯BT下载软件:qBittorrent,Bitcomet,uTorrent ,其他下载软件请自行尝试。不支持吸血迅雷。

##### MediaInfo ######
General
Unique ID : 300642814161345382081319713368352185424 (0xE22DB32870AFBC83209EFCEEE0F75C50)
Complete name : Sword.and.Fairy.S01E33.2024.2160p.WEB-DL.H265.EDR.AAC-BlackTV.mkv
Duration : 45 min 17 s
Overall bit rate : 14.4 Mb/s

Video
ID : 1
Format : HEVC
Format/Info : High Efficiency Video Coding
Format profile : Main@L5@Main
Codec ID : V_MPEGH/ISO/HEVC
Duration : 45 min 17 s
Bit rate : 14.2 Mb/s
Width : 3 840 pixels
Height : 2 160 pixels
Display aspect ratio : 16:9
Frame rate mode : Constant
Frame rate : 25.000 FPS
Color space : YUV
Chroma subsampling : 4:2:0
Bit depth : 8 bits
Bits/(Pixel*Frame) : 0.068
Stream size : 4.49 GiB (99%)
Language : Chinese
Default : Yes
Forced : No
Color range : Limited

Audio
ID : 2
Format : AAC LC
Format/Info : Advanced Audio Codec Low Complexity
Codec ID : A_AAC-2
Duration : 45 min 17 s
Bit rate : 192 kb/s
Channel(s) : 2 channels
Channel layout : L R
Sampling rate : 44.1 kHz
Frame rate : 43.066 FPS (1024 SPF)
Compression mode : Lossy
Stream size : 61.4 MiB (1%)
Title : Mandarin [AAC2.0]
Language : Chinese
Default : No
Forced : No


点击图片可查看大图

软字幕无法在截图上展现,HDR版本/杜比视界版本截图会出现颜色异常,请使用支持的设备播放!



1 个附件 售价 大小 下载 时间

Sword.and.Fairy.S01.2024.2160p.WEB-DL.H265.EDR.AAC-BlackTV[1LOU.ME].torrent 0 金币 24.58K 315 次 1月前

#1楼
发帖时间:2024-04-19 23:49:20   |   回复数:0
游客组