Eddie wang
管理员

[2022] [美国] [惊悚] [WEB-4K] 回声三号[第04-08集][简繁英字幕].Echo.3.S01.2160p.Apple.TV/.WEB-DL.DDP.5.1.Atmos.HDR10/.H.26

-->

回声三号[第04-08集][简繁英字幕].Echo.3.S01.2160p.Apple.TV/.WEB-DL.DDP.5.1.Atmos.HDR10/.H.265-BlackTV 42.95GB



◎标  题 回声三号
◎译  名 Echo 3:救援任务(台) / Echo 3 特种部队(港) / 回声3 / 第三次回声
◎片  名 Echo 3
◎年  代 2022
◎产  地 美国
◎类  别 剧情 / 动作 / 惊悚
◎语  言 英语
◎上映日期 2022-11-23(美国)
◎IMDb评分 6.5/10 (3082人评价)
◎IMDb链接 https://www.imdb.com/title/tt12762512/
◎豆瓣评分 6.5/10 (408人评价)
◎豆瓣链接 https://movie.douban.com/subject/35237616/
◎导  演 马克·鲍尔 Mark Boal
◎编  剧 马克·鲍尔 Mark Boal
◎演  员 卢克·伊万斯 Luke Evans
      米希尔·赫伊斯曼 Michiel Huisman
      杰西卡·科林斯 Jessica Collins
      詹姆斯·乌多姆 James Udom
      伊丽莎白·安维斯 Elizabeth Anweis
      索非娅·布埃纳文图拉 Sofia Buenaventura
      马蒂娜·古斯曼 Martina Gusman
      卡洛斯·巴登 Carlos Bardem
      布莱德利·惠特福德 Bradley Whitford
      胡安·巴勃罗·拉瓦 Juan Pablo Raba
      凯特·伯顿 Kate Burton
      保罗·库比德斯 Paul Cubides
      安德烈埃·莱恩 Andrea Laing
      凯瑟琳·休斯 Katherine Hughes
      弗朗卡·波滕特 Franka Potente
      维勒莉·玛哈菲 Valerie Mahaffey
      亚利桑德罗·富尔特 Alejandro Furth
      特穆拉·莫里森 Temuera Morrison
      多米尼克·伯吉斯 Dominic Burgess
      多米尼克·福穆萨 Dominic Fumusa
      帕奇·德拉奇 Patch Darragh
      大卫·德弗里斯 David de Vries
      Diego Trujillo Diego Trujillo
      法希姆·法兹利 Fahim Fazli
      马克·可汗 Marco Khan
      米歇尔·坎贝尔 Michelle Campbell
      Holly Bonney Holly Bonney

◎简  介
  卢克·伊万斯将主演Apple动作惊悚剧集《第三次回声》(Echo 3,暂译)。剧集共10集,包含英语、西班牙语两种对白,故事背景设定在南美,紧随一位杰出的年轻科学家Amber Chesborough展开,她是一个美国小家庭的情感中心。当她在哥伦比亚和委内瑞拉边境失踪时,她的哥哥和她的丈夫,两个有着多年军事经历和复杂过往的男人,在一次秘密战争的爆炸背景下,努力地去寻找她。伊万斯饰演Amber的哥哥。

  1. ##### MediaInfo ######

  2. General

  3. Unique ID                                : 266105211938400428147283438192415403450 (0xC831FFE5FAE751AF947E31C4789EEDBA)

  4. Complete name                            : Echo.3.S01E04.Upriver.2160p.Apple.TV+.WEB-DL.DDP.5.1.Atmos.HDR10+.H.265-BlackTV.mkv

  5. Format                                   : Matroska

  6. Format version                           : Version 4

  7. File size                                : 7.87 GiB

  8. Duration                                 : 44 min 25 s

  9. Overall bit rate                         : 25.3 Mb/s

  10. Encoded date                             : UTC 2023-01-01 03:41:47

  11. Writing application                      : mkvmerge v71.1.0 ('Fortitude') 64-bit

  12. Writing library                          : libebml v1.4.4 + libmatroska v1.7.1


  13. Video

  14. ID                                       : 1

  15. Format                                   : HEVC

  16. Format/Info                              : High Efficiency Video Coding

  17. Format profile                           : Main 10@L5@High

  18. HDR format                               : SMPTE ST 2094 App 4, Version 1, HDR10+ Profile B compatible

  19. Codec ID                                 : V_MPEGH/ISO/HEVC

  20. Duration                                 : 44 min 25 s

  21. Bit rate                                 : 24.6 Mb/s

  22. Width                                    : 3 840 pixels

  23. Height                                   : 1 606 pixels

  24. Display aspect ratio                     : 2.40:1

  25. Frame rate mode                          : Constant

  26. Frame rate                               : 23.976 FPS

  27. Color space                              : YUV

  28. Chroma subsampling                       : 4:2:0 (Type 2)

  29. Bit depth                                : 10 bits

  30. Bits/(Pixel*Frame)                       : 0.166

  31. Stream size                              : 7.63 GiB (97%)

  32. Language                                 : English

  33. Default                                  : Yes

  34. Forced                                   : No

  35. Color range                              : Limited

  36. Color primaries                          : BT.2020

  37. Transfer characteristics                 : PQ

  38. Matrix coefficients                      : BT.2020 non-constant

  39. Mastering display color primaries        : Display P3

  40. Mastering display luminance              : min: 0.0050 cd/m2, max: 1000 cd/m2

  41. Maximum Content Light Level              : 2214 cd/m2

  42. Maximum Frame-Average Light Level        : 188 cd/m2


  43. Audio

  44. ID                                       : 2

  45. Format                                   : E-AC-3 JOC

  46. Format/Info                              : Enhanced AC-3 with Joint Object Coding

  47. Commercial name                          : Dolby Digital Plus with Dolby Atmos

  48. Codec ID                                 : A_EAC3

  49. Duration                                 : 44 min 25 s

  50. Bit rate mode                            : Constant

  51. Bit rate                                 : 768 kb/s

  52. Channel(s)                               : 6 channels

  53. Channel layout                           : L R C LFE Ls Rs

  54. Sampling rate                            : 48.0 kHz

  55. Frame rate                               : 31.250 FPS (1536 SPF)

  56. Compression mode                         : Lossy

  57. Stream size                              : 244 MiB (3%)

  58. Language                                 : English

  59. Service kind                             : Complete Main

  60. Default                                  : Yes

  61. Forced                                   : No

  62. Complexity index                         : 16

  63. Number of dynamic objects                : 15

  64. Bed channel count                        : 1 channel

  65. Bed channel configuration                : LFE


  66. Text #1

  67. ID                                       : 3

  68. Format                                   : UTF-8

  69. Codec ID                                 : S_TEXT/UTF8

  70. Codec ID/Info                            : UTF-8 Plain Text

  71. Duration                                 : 41 min 49 s

  72. Bit rate                                 : 49 b/s

  73. Count of elements                        : 436

  74. Stream size                              : 15.1 KiB (0%)

  75. Title                                    : SDH

  76. Language                                 : English

  77. Default                                  : No

  78. Forced                                   : No


  79. Text #2

  80. ID                                       : 4

  81. Format                                   : UTF-8

  82. Codec ID                                 : S_TEXT/UTF8

  83. Codec ID/Info                            : UTF-8 Plain Text

  84. Duration                                 : 43 min 37 s

  85. Bit rate                                 : 45 b/s

  86. Count of elements                        : 455

  87. Stream size                              : 14.6 KiB (0%)

  88. Title                                    : Simplified (SDH)

  89. Language                                 : Chinese

  90. Default                                  : No

  91. Forced                                   : No


  92. Text #3

  93. ID                                       : 5

  94. Format                                   : UTF-8

  95. Codec ID                                 : S_TEXT/UTF8

  96. Codec ID/Info                            : UTF-8 Plain Text

  97. Duration                                 : 43 min 58 s

  98. Bit rate                                 : 47 b/s

  99. Count of elements                        : 456

  100. Stream size                              : 15.4 KiB (0%)

  101. Title                                    : Traditional (SDH)

  102. Language                                 : Chinese

  103. Default                                  : No

  104. Forced                                   : No


复制代码

点击图片可查看大图

软字幕无法在截图上展现,HDR版本/杜比视界版本截图会出现颜色异常,请使用支持的设备播放!

部分资源为软字幕,移动端推荐播放器:MxPlayer,nPlayer,infuse ,其他播放器请自行尝试。

部分资源为软字幕,电脑端推荐播放器:PotPlayer,完美解码,KMPLAYER,其他播放器请自行尝试。



1 个附件 售价 大小 下载 时间

Echo.3.S01.2160p.Apple.TV .WEB-DL.DDP.5.1.Atmos.HDR10 .H.265-BlackTV 42.95GB.torrent 0 金币 114.70K 5544 次 2023-1-10

#1楼
发帖时间:2023-01-10 17:52:07   |   回复数:0
游客组