Eddie wang
管理员

[2022] [美国] [惊悚] [WEB-4K] 中情局律师[全8集][简繁英字幕].The.Recruit.S01.2160p.NF.WEB-DL.DDP.5.1.Atmos.H.265-BlackTV 37

-->

中情局律师[全8集][简繁英字幕].The.Recruit.S01.2160p.NF.WEB-DL.DDP.5.1.Atmos.H.265-BlackTV 37.81GB




◎标  题 中情局律师
◎译  名 新扎律师 / 黑函情报战
◎片  名 The Recruit
◎年  代 2022
◎产  地 美国
◎类  别 剧情 / 惊悚
◎语  言 英语
◎上映日期 2022-12-16(美国)
◎IMDb评分 7.5/10 (17292人评价)
◎IMDb链接 https://www.imdb.com/title/tt16030542/
◎豆瓣评分 7.6/10 (1328人评价)
◎豆瓣链接 https://movie.douban.com/subject/36159717/
◎片  长 60分钟
◎导  演 道格·里曼 Doug Liman
◎编  剧 阿列克斯·霍利 Alexi Hawley
◎演  员 诺亚·琴蒂内奥 Noah Centineo
       劳拉·哈德克 Laura Haddock
       阿尔蒂·曼 Aarti Mann
       凯瑟琳·金·索 Katharine King So
       贾马尔·格兰特 Jamaal Grant
       崔斯坦·D·拉勒 Tristan D. Lalla
       杰斯·巴雷罗 Jayce Barreiro
       肖恩·塔克 Sean Tucker
       保利娜·利特尔 Pauline Little
       莱纳斯·罗彻 Linus Roache
       科尔顿·邓恩 Colton Dunn
       沃迪·科蒂斯·霍尔 Vondie Curtis-Hall
       菲韦尔·斯图尔特 Fivel Stewart
       克里斯蒂安·布鲁恩 Kristian Bruun
       文峰 Byron Mann
       安吉尔·帕克 Angel Parker

◎简  介
  《中情局律师》围绕年轻的中情局律师欧文·亨德里克斯(诺亚·琴蒂内奥饰)展开,刚工作一周的他发现了前探员玛克·辛梅拉泽(劳拉·哈德克饰)的一封威胁信,自此工作发生了翻天覆地的变化。玛克·辛梅拉泽扬言道,若不免除她的重罪,便要揭发机构内幕。欧文很快陷入了一个危险而又荒谬的世界,这个世界充满了强权政治和恶作剧之人,他跑遍世界,希望完成自己的任务,并在中情局有所作为。
  1. ##### MediaInfo ######

  2. General

  3. Unique ID                                : 186257347499643215925714467832082884315 (0x8C1FDC3C0AC9035076A287C95E7266DB)

  4. Complete name                            : The.Recruit.S01E01.I.N.A.S.I.A.L.2160p.NF.WEB-DL.DDP.5.1.Atmos.H.265-BlackTV.mkv

  5. Format                                   : Matroska

  6. Format version                           : Version 4

  7. File size                                : 4.50 GiB

  8. Duration                                 : 52 min 26 s

  9. Overall bit rate                         : 12.3 Mb/s

  10. Encoded date                             : UTC 2023-01-08 15:16:11

  11. Writing application                      : mkvmerge v71.1.0 ('Fortitude') 64-bit

  12. Writing library                          : libebml v1.4.4 + libmatroska v1.7.1


  13. Video

  14. ID                                       : 1

  15. Format                                   : HEVC

  16. Format/Info                              : High Efficiency Video Coding

  17. Format profile                           : Main [email protected]@Main

  18. Codec ID                                 : V_MPEGH/ISO/HEVC

  19. Duration                                 : 52 min 26 s

  20. Bit rate                                 : 11.5 Mb/s

  21. Width                                    : 3 840 pixels

  22. Height                                   : 2 160 pixels

  23. Display aspect ratio                     : 16:9

  24. Frame rate mode                          : Constant

  25. Frame rate                               : 24.000 FPS

  26. Color space                              : YUV

  27. Chroma subsampling                       : 4:2:0

  28. Bit depth                                : 10 bits

  29. Bits/(Pixel*Frame)                       : 0.058

  30. Stream size                              : 4.22 GiB (94%)

  31. Language                                 : English

  32. Default                                  : Yes

  33. Forced                                   : No

  34. Color range                              : Limited

  35. Color primaries                          : BT.709

  36. Transfer characteristics                 : BT.709

  37. Matrix coefficients                      : BT.709


  38. Audio

  39. ID                                       : 2

  40. Format                                   : E-AC-3 JOC

  41. Format/Info                              : Enhanced AC-3 with Joint Object Coding

  42. Commercial name                          : Dolby Digital Plus with Dolby Atmos

  43. Codec ID                                 : A_EAC3

  44. Duration                                 : 52 min 26 s

  45. Bit rate mode                            : Constant

  46. Bit rate                                 : 768 kb/s

  47. Channel(s)                               : 6 channels

  48. Channel layout                           : L R C LFE Ls Rs

  49. Sampling rate                            : 48.0 kHz

  50. Frame rate                               : 31.250 FPS (1536 SPF)

  51. Compression mode                         : Lossy

  52. Stream size                              : 288 MiB (6%)

  53. Language                                 : English

  54. Service kind                             : Complete Main

  55. Default                                  : Yes

  56. Forced                                   : No

  57. Complexity index                         : 16

  58. Number of dynamic objects                : 15

  59. Bed channel count                        : 1 channel

  60. Bed channel configuration                : LFE


  61. Text #1

  62. ID                                       : 3

  63. Format                                   : UTF-8

  64. Codec ID                                 : S_TEXT/UTF8

  65. Codec ID/Info                            : UTF-8 Plain Text

  66. Duration                                 : 1 s 167 ms

  67. Bit rate                                 : 171 b/s

  68. Count of elements                        : 1

  69. Stream size                              : 25.0 Bytes (0%)

  70. Title                                    : Forced

  71. Language                                 : English

  72. Default                                  : Yes

  73. Forced                                   : Yes


  74. Text #2

  75. ID                                       : 4

  76. Format                                   : UTF-8

  77. Codec ID                                 : S_TEXT/UTF8

  78. Codec ID/Info                            : UTF-8 Plain Text

  79. Duration                                 : 49 min 23 s

  80. Bit rate                                 : 81 b/s

  81. Count of elements                        : 729

  82. Stream size                              : 29.3 KiB (0%)

  83. Title                                    : SDH

  84. Language                                 : English

  85. Default                                  : No

  86. Forced                                   : No


  87. Text #3

  88. ID                                       : 5

  89. Format                                   : UTF-8

  90. Codec ID                                 : S_TEXT/UTF8

  91. Codec ID/Info                            : UTF-8 Plain Text

  92. Duration                                 : 50 min 38 s

  93. Bit rate                                 : 73 b/s

  94. Count of elements                        : 669

  95. Stream size                              : 27.2 KiB (0%)

  96. Title                                    : Simplified

  97. Language                                 : Chinese

  98. Default                                  : No

  99. Forced                                   : No


  100. Text #4

  101. ID                                       : 6

  102. Format                                   : UTF-8

  103. Codec ID                                 : S_TEXT/UTF8

  104. Codec ID/Info                            : UTF-8 Plain Text

  105. Duration                                 : 50 min 38 s

  106. Bit rate                                 : 64 b/s

  107. Count of elements                        : 670

  108. Stream size                              : 24.0 KiB (0%)

  109. Title                                    : Traditional

  110. Language                                 : Chinese

  111. Default                                  : No

  112. Forced                                   : No


  113. Text #5

  114. ID                                       : 7

  115. Format                                   : UTF-8

  116. Codec ID                                 : S_TEXT/UTF8

  117. Codec ID/Info                            : UTF-8 Plain Text

  118. Duration                                 : 50 min 38 s

  119. Bit rate                                 : 118 b/s

  120. Count of elements                        : 672

  121. Stream size                              : 43.9 KiB (0%)

  122. Language                                 : Arabic

  123. Default                                  : No

  124. Forced                                   : No


  125. Text #6

  126. ID                                       : 8

  127. Format                                   : UTF-8

  128. Codec ID                                 : S_TEXT/UTF8

  129. Codec ID/Info                            : UTF-8 Plain Text

  130. Duration                                 : 50 min 38 s

  131. Bit rate                                 : 62 b/s

  132. Count of elements                        : 656

  133. Stream size                              : 23.1 KiB (0%)

  134. Language                                 : Catalan

  135. Default                                  : No

  136. Forced                                   : No


  137. Text #7

  138. ID                                       : 9

  139. Format                                   : UTF-8

  140. Codec ID                                 : S_TEXT/UTF8

  141. Codec ID/Info                            : UTF-8 Plain Text

  142. Duration                                 : 50 min 29 s

  143. Bit rate                                 : 76 b/s

  144. Count of elements                        : 804

  145. Stream size                              : 28.4 KiB (0%)

  146. Title                                    : SDH

  147. Language                                 : Czech

  148. Default                                  : No

  149. Forced                                   : No


  150. Text #8

  151. ID                                       : 10

  152. Format                                   : UTF-8

  153. Codec ID                                 : S_TEXT/UTF8

  154. Codec ID/Info                            : UTF-8 Plain Text

  155. Duration                                 : 49 min 28 s

  156. Bit rate                                 : 70 b/s

  157. Count of elements                        : 697

  158. Stream size                              : 25.5 KiB (0%)

  159. Language                                 : Czech

  160. Default                                  : No

  161. Forced                                   : No


  162. Text #9

  163. ID                                       : 11

  164. Format                                   : UTF-8

  165. Codec ID                                 : S_TEXT/UTF8

  166. Codec ID/Info                            : UTF-8 Plain Text

  167. Duration                                 : 50 min 38 s

  168. Bit rate                                 : 63 b/s

  169. Count of elements                        : 669

  170. Stream size                              : 23.7 KiB (0%)

  171. Language                                 : Czech

  172. Default                                  : No

  173. Forced                                   : No


  174. Text #10

  175. ID                                       : 12

  176. Format                                   : UTF-8

  177. Codec ID                                 : S_TEXT/UTF8

  178. Codec ID/Info                            : UTF-8 Plain Text

  179. Duration                                 : 50 min 38 s

  180. Bit rate                                 : 62 b/s

  181. Count of elements                        : 663

  182. Stream size                              : 23.0 KiB (0%)

  183. Language                                 : Danish

  184. Default                                  : No

  185. Forced                                   : No


  186. Text #11

  187. ID                                       : 13

  188. Format                                   : UTF-8

  189. Codec ID                                 : S_TEXT/UTF8

  190. Codec ID/Info                            : UTF-8 Plain Text

  191. Duration                                 : 50 min 38 s

  192. Bit rate                                 : 63 b/s

  193. Count of elements                        : 667

  194. Stream size                              : 23.6 KiB (0%)

  195. Language                                 : German

  196. Default                                  : No

  197. Forced                                   : No


  198. Text #12

  199. ID                                       : 14

  200. Format                                   : UTF-8

  201. Codec ID                                 : S_TEXT/UTF8

  202. Codec ID/Info                            : UTF-8 Plain Text

  203. Duration                                 : 50 min 38 s

  204. Bit rate                                 : 113 b/s

  205. Count of elements                        : 670

  206. Stream size                              : 41.9 KiB (0%)

  207. Language                                 : Greek

  208. Default                                  : No

  209. Forced                                   : No


  210. Text #13

  211. ID                                       : 15

  212. Format                                   : UTF-8

  213. Codec ID                                 : S_TEXT/UTF8

  214. Codec ID/Info                            : UTF-8 Plain Text

  215. Duration                                 : 49 min 35 s

  216. Bit rate                                 : 81 b/s

  217. Count of elements                        : 765

  218. Stream size                              : 29.6 KiB (0%)

  219. Title                                    : Latin America (SDH)

  220. Language                                 : Spanish

  221. Default                                  : No

  222. Forced                                   : No


  223. Text #14

  224. ID                                       : 16

  225. Format                                   : UTF-8

  226. Codec ID                                 : S_TEXT/UTF8

  227. Codec ID/Info                            : UTF-8 Plain Text

  228. Duration                                 : 49 min 29 s

  229. Bit rate                                 : 75 b/s

  230. Count of elements                        : 707

  231. Stream size                              : 27.5 KiB (0%)

  232. Title                                    : Latin America

  233. Language                                 : Spanish

  234. Default                                  : No

  235. Forced                                   : No


  236. Text #15

  237. ID                                       : 17

  238. Format                                   : UTF-8

  239. Codec ID                                 : S_TEXT/UTF8

  240. Codec ID/Info                            : UTF-8 Plain Text

  241. Duration                                 : 50 min 38 s

  242. Bit rate                                 : 64 b/s

  243. Count of elements                        : 665

  244. Stream size                              : 24.0 KiB (0%)

  245. Title                                    : Latin America

  246. Language                                 : Spanish

  247. Default                                  : No

  248. Forced                                   : No


  249. Text #16

  250. ID                                       : 18

  251. Format                                   : UTF-8

  252. Codec ID                                 : S_TEXT/UTF8

  253. Codec ID/Info                            : UTF-8 Plain Text

  254. Duration                                 : 50 min 38 s

  255. Bit rate                                 : 65 b/s

  256. Count of elements                        : 665

  257. Stream size                              : 24.3 KiB (0%)

  258. Language                                 : Spanish

  259. Default                                  : No

  260. Forced                                   : No


  261. Text #17

  262. ID                                       : 19

  263. Format                                   : UTF-8

  264. Codec ID                                 : S_TEXT/UTF8

  265. Codec ID/Info                            : UTF-8 Plain Text

  266. Duration                                 : 50 min 38 s

  267. Bit rate                                 : 68 b/s

  268. Count of elements                        : 659

  269. Stream size                              : 25.5 KiB (0%)

  270. Language                                 : Basque

  271. Default                                  : No

  272. Forced                                   : No


  273. Text #18

  274. ID                                       : 20

  275. Format                                   : UTF-8

  276. Codec ID                                 : S_TEXT/UTF8

  277. Codec ID/Info                            : UTF-8 Plain Text

  278. Duration                                 : 50 min 38 s

  279. Bit rate                                 : 66 b/s

  280. Count of elements                        : 666

  281. Stream size                              : 24.5 KiB (0%)

  282. Language                                 : Finnish

  283. Default                                  : No

  284. Forced                                   : No


  285. Text #19

  286. ID                                       : 21

  287. Format                                   : UTF-8

  288. Codec ID                                 : S_TEXT/UTF8

  289. Codec ID/Info                            : UTF-8 Plain Text

  290. Duration                                 : 48 min 34 s

  291. Bit rate                                 : 63 b/s

  292. Count of elements                        : 649

  293. Stream size                              : 22.5 KiB (0%)

  294. Language                                 : fil

  295. Default                                  : No

  296. Forced                                   : No


  297. Text #20

  298. ID                                       : 22

  299. Format                                   : UTF-8

  300. Codec ID                                 : S_TEXT/UTF8

  301. Codec ID/Info                            : UTF-8 Plain Text

  302. Duration                                 : 49 min 32 s

  303. Bit rate                                 : 88 b/s

  304. Count of elements                        : 841

  305. Stream size                              : 32.2 KiB (0%)

  306. Title                                    : SDH

  307. Language                                 : French

  308. Default                                  : No

  309. Forced                                   : No


  310. Text #21

  311. ID                                       : 23

  312. Format                                   : UTF-8

  313. Codec ID                                 : S_TEXT/UTF8

  314. Codec ID/Info                            : UTF-8 Plain Text

  315. Duration                                 : 50 min 38 s

  316. Bit rate                                 : 64 b/s

  317. Count of elements                        : 654

  318. Stream size                              : 23.9 KiB (0%)

  319. Language                                 : French

  320. Default                                  : No

  321. Forced                                   : No


  322. Text #22

  323. ID                                       : 24

  324. Format                                   : UTF-8

  325. Codec ID                                 : S_TEXT/UTF8

  326. Codec ID/Info                            : UTF-8 Plain Text

  327. Duration                                 : 48 min 41 s

  328. Bit rate                                 : 81 b/s

  329. Count of elements                        : 731

  330. Stream size                              : 29.1 KiB (0%)

  331. Language                                 : French

  332. Default                                  : No

  333. Forced                                   : No


  334. Text #23

  335. ID                                       : 25

  336. Format                                   : UTF-8

  337. Codec ID                                 : S_TEXT/UTF8

  338. Codec ID/Info                            : UTF-8 Plain Text

  339. Duration                                 : 50 min 38 s

  340. Bit rate                                 : 63 b/s

  341. Count of elements                        : 651

  342. Stream size                              : 23.7 KiB (0%)

  343. Language                                 : Galician

  344. Default                                  : No

  345. Forced                                   : No


  346. Text #24

  347. ID                                       : 26

  348. Format                                   : UTF-8

  349. Codec ID                                 : S_TEXT/UTF8

  350. Codec ID/Info                            : UTF-8 Plain Text

  351. Duration                                 : 50 min 38 s

  352. Bit rate                                 : 112 b/s

  353. Count of elements                        : 671

  354. Stream size                              : 41.7 KiB (0%)

  355. Language                                 : Hebrew

  356. Default                                  : No

  357. Forced                                   : No


  358. Text #25

  359. ID                                       : 27

  360. Format                                   : UTF-8

  361. Codec ID                                 : S_TEXT/UTF8

  362. Codec ID/Info                            : UTF-8 Plain Text

  363. Duration                                 : 50 min 38 s

  364. Bit rate                                 : 66 b/s

  365. Count of elements                        : 666

  366. Stream size                              : 24.5 KiB (0%)

  367. Language                                 : Croatian

  368. Default                                  : No

  369. Forced                                   : No


  370. Text #26

  371. ID                                       : 28

  372. Format                                   : UTF-8

  373. Codec ID                                 : S_TEXT/UTF8

  374. Codec ID/Info                            : UTF-8 Plain Text

  375. Duration                                 : 49 min 28 s

  376. Bit rate                                 : 85 b/s

  377. Count of elements                        : 825

  378. Stream size                              : 31.0 KiB (0%)

  379. Title                                    : SDH

  380. Language                                 : Hungarian

  381. Default                                  : No

  382. Forced                                   : No


  383. Text #27

  384. ID                                       : 29

  385. Format                                   : UTF-8

  386. Codec ID                                 : S_TEXT/UTF8

  387. Codec ID/Info                            : UTF-8 Plain Text

  388. Duration                                 : 48 min 58 s

  389. Bit rate                                 : 74 b/s

  390. Count of elements                        : 691

  391. Stream size                              : 26.8 KiB (0%)

  392. Language                                 : Hungarian

  393. Default                                  : No

  394. Forced                                   : No


  395. Text #28

  396. ID                                       : 30

  397. Format                                   : UTF-8

  398. Codec ID                                 : S_TEXT/UTF8

  399. Codec ID/Info                            : UTF-8 Plain Text

  400. Duration                                 : 50 min 38 s

  401. Bit rate                                 : 60 b/s

  402. Count of elements                        : 668

  403. Stream size                              : 22.5 KiB (0%)

  404. Language                                 : Hungarian

  405. Default                                  : No

  406. Forced                                   : No


  407. Text #29

  408. ID                                       : 31

  409. Format                                   : UTF-8

  410. Codec ID                                 : S_TEXT/UTF8

  411. Codec ID/Info                            : UTF-8 Plain Text

  412. Duration                                 : 50 min 38 s

  413. Bit rate                                 : 63 b/s

  414. Count of elements                        : 668

  415. Stream size                              : 23.6 KiB (0%)

  416. Language                                 : Indonesian

  417. Default                                  : No

  418. Forced                                   : No


  419. Text #30

  420. ID                                       : 32

  421. Format                                   : UTF-8

  422. Codec ID                                 : S_TEXT/UTF8

  423. Codec ID/Info                            : UTF-8 Plain Text

  424. Duration                                 : 50 min 38 s

  425. Bit rate                                 : 65 b/s

  426. Count of elements                        : 668

  427. Stream size                              : 24.3 KiB (0%)

  428. Language                                 : Italian

  429. Default                                  : No

  430. Forced                                   : No


  431. Text #31

  432. ID                                       : 33

  433. Format                                   : UTF-8

  434. Codec ID                                 : S_TEXT/UTF8

  435. Codec ID/Info                            : UTF-8 Plain Text

  436. Duration                                 : 50 min 29 s

  437. Bit rate                                 : 64 b/s

  438. Count of elements                        : 708

  439. Stream size                              : 23.8 KiB (0%)

  440. Language                                 : Japanese

  441. Default                                  : No

  442. Forced                                   : No


  443. Text #32

  444. ID                                       : 34

  445. Format                                   : UTF-8

  446. Codec ID                                 : S_TEXT/UTF8

  447. Codec ID/Info                            : UTF-8 Plain Text

  448. Duration                                 : 50 min 38 s

  449. Bit rate                                 : 75 b/s

  450. Count of elements                        : 670

  451. Stream size                              : 28.2 KiB (0%)

  452. Language                                 : Korean

  453. Default                                  : No

  454. Forced                                   : No


  455. Text #33

  456. ID                                       : 35

  457. Format                                   : UTF-8

  458. Codec ID                                 : S_TEXT/UTF8

  459. Codec ID/Info                            : UTF-8 Plain Text

  460. Duration                                 : 50 min 38 s

  461. Bit rate                                 : 60 b/s

  462. Count of elements                        : 668

  463. Stream size                              : 22.5 KiB (0%)

  464. Language                                 : Malay

  465. Default                                  : No

  466. Forced                                   : No


  467. Text #34

  468. ID                                       : 36

  469. Format                                   : UTF-8

  470. Codec ID                                 : S_TEXT/UTF8

  471. Codec ID/Info                            : UTF-8 Plain Text

  472. Duration                                 : 50 min 8 s

  473. Bit rate                                 : 61 b/s

  474. Count of elements                        : 536

  475. Stream size                              : 22.6 KiB (0%)

  476. Language                                 : Norwegian Bokmal

  477. Default                                  : No

  478. Forced                                   : No


  479. Text #35

  480. ID                                       : 37

  481. Format                                   : UTF-8

  482. Codec ID                                 : S_TEXT/UTF8

  483. Codec ID/Info                            : UTF-8 Plain Text

  484. Duration                                 : 50 min 38 s

  485. Bit rate                                 : 65 b/s

  486. Count of elements                        : 632

  487. Stream size                              : 24.2 KiB (0%)

  488. Language                                 : Dutch

  489. Default                                  : No

  490. Forced                                   : No


  491. Text #36

  492. ID                                       : 38

  493. Format                                   : UTF-8

  494. Codec ID                                 : S_TEXT/UTF8

  495. Codec ID/Info                            : UTF-8 Plain Text

  496. Duration                                 : 50 min 38 s

  497. Bit rate                                 : 63 b/s

  498. Count of elements                        : 661

  499. Stream size                              : 23.4 KiB (0%)

  500. Language                                 : Polish

  501. Default                                  : No

  502. Forced                                   : No


  503. Text #37

  504. ID                                       : 39

  505. Format                                   : UTF-8

  506. Codec ID                                 : S_TEXT/UTF8

  507. Codec ID/Info                            : UTF-8 Plain Text

  508. Duration                                 : 50 min 38 s

  509. Bit rate                                 : 64 b/s

  510. Count of elements                        : 668

  511. Stream size                              : 23.8 KiB (0%)

  512. Title                                    : Brazil

  513. Language                                 : Portuguese

  514. Default                                  : No

  515. Forced                                   : No


  516. Text #38

  517. ID                                       : 40

  518. Format                                   : UTF-8

  519. Codec ID                                 : S_TEXT/UTF8

  520. Codec ID/Info                            : UTF-8 Plain Text

  521. Duration                                 : 50 min 38 s

  522. Bit rate                                 : 64 b/s

  523. Count of elements                        : 663

  524. Stream size                              : 23.8 KiB (0%)

  525. Language                                 : Portuguese

  526. Default                                  : No

  527. Forced                                   : No


  528. Text #39

  529. ID                                       : 41

  530. Format                                   : UTF-8

  531. Codec ID                                 : S_TEXT/UTF8

  532. Codec ID/Info                            : UTF-8 Plain Text

  533. Duration                                 : 50 min 38 s

  534. Bit rate                                 : 75 b/s

  535. Count of elements                        : 665

  536. Stream size                              : 28.2 KiB (0%)

  537. Language                                 : Romanian

  538. Default                                  : No

  539. Forced                                   : No


  540. Text #40

  541. ID                                       : 42

  542. Format                                   : UTF-8

  543. Codec ID                                 : S_TEXT/UTF8

  544. Codec ID/Info                            : UTF-8 Plain Text

  545. Duration                                 : 50 min 38 s

  546. Bit rate                                 : 114 b/s

  547. Count of elements                        : 670

  548. Stream size                              : 42.5 KiB (0%)

  549. Language                                 : Russian

  550. Default                                  : No

  551. Forced                                   : No


  552. Text #41

  553. ID                                       : 43

  554. Format                                   : UTF-8

  555. Codec ID                                 : S_TEXT/UTF8

  556. Codec ID/Info                            : UTF-8 Plain Text

  557. Duration                                 : 50 min 38 s

  558. Bit rate                                 : 66 b/s

  559. Count of elements                        : 636

  560. Stream size                              : 24.5 KiB (0%)

  561. Language                                 : Swedish

  562. Default                                  : No

  563. Forced                                   : No


  564. Text #42

  565. ID                                       : 44

  566. Format                                   : UTF-8

  567. Codec ID                                 : S_TEXT/UTF8

  568. Codec ID/Info                            : UTF-8 Plain Text

  569. Duration                                 : 50 min 38 s

  570. Bit rate                                 : 167 b/s

  571. Count of elements                        : 670

  572. Stream size                              : 62.0 KiB (0%)

  573. Language                                 : Thai

  574. Default                                  : No

  575. Forced                                   : No


  576. Text #43

  577. ID                                       : 45

  578. Format                                   : UTF-8

  579. Codec ID                                 : S_TEXT/UTF8

  580. Codec ID/Info                            : UTF-8 Plain Text

  581. Duration                                 : 50 min 38 s

  582. Bit rate                                 : 89 b/s

  583. Count of elements                        : 815

  584. Stream size                              : 33.0 KiB (0%)

  585. Title                                    : SDH

  586. Language                                 : Turkish

  587. Default                                  : No

  588. Forced                                   : No


  589. Text #44

  590. ID                                       : 46

  591. Format                                   : UTF-8

  592. Codec ID                                 : S_TEXT/UTF8

  593. Codec ID/Info                            : UTF-8 Plain Text

  594. Duration                                 : 48 min 58 s

  595. Bit rate                                 : 77 b/s

  596. Count of elements                        : 680

  597. Stream size                              : 27.7 KiB (0%)

  598. Language                                 : Turkish

  599. Default                                  : No

  600. Forced                                   : No


  601. Text #45

  602. ID                                       : 47

  603. Format                                   : UTF-8

  604. Codec ID                                 : S_TEXT/UTF8

  605. Codec ID/Info                            : UTF-8 Plain Text

  606. Duration                                 : 50 min 38 s

  607. Bit rate                                 : 67 b/s

  608. Count of elements                        : 667

  609. Stream size                              : 25.1 KiB (0%)

  610. Language                                 : Turkish

  611. Default                                  : No

  612. Forced                                   : No


  613. Text #46

  614. ID                                       : 48

  615. Format                                   : UTF-8

  616. Codec ID                                 : S_TEXT/UTF8

  617. Codec ID/Info                            : UTF-8 Plain Text

  618. Duration                                 : 50 min 38 s

  619. Bit rate                                 : 113 b/s

  620. Count of elements                        : 679

  621. Stream size                              : 41.9 KiB (0%)

  622. Language                                 : Ukrainian

  623. Default                                  : No

  624. Forced                                   : No


  625. Text #47

  626. ID                                       : 49

  627. Format                                   : UTF-8

  628. Codec ID                                 : S_TEXT/UTF8

  629. Codec ID/Info                            : UTF-8 Plain Text

  630. Duration                                 : 50 min 38 s

  631. Bit rate                                 : 93 b/s

  632. Count of elements                        : 654

  633. Stream size                              : 34.6 KiB (0%)

  634. Language                                 : Vietnamese

  635. Default                                  : No

  636. Forced                                   : No


  637. Menu

  638. 00:49:46.000                             : en:End Credits


复制代码


点击图片可查看大图

软字幕无法在截图上展现,HDR版本/杜比视界版本截图会出现颜色异常,请使用支持的设备播放!

部分资源为软字幕,移动端推荐播放器:MxPlayer,nPlayer,infuse ,其他播放器请自行尝试。

部分资源为软字幕,电脑端推荐播放器:PotPlayer,完美解码,KMPLAYER,其他播放器请自行尝试。




1 个附件 售价 大小 下载 时间

The.Recruit.S01.2160p.NF.WEB-DL.DDP.5.1.Atmos.H.265-BlackTV 37.81GB.torrent 0 金币 101.87K 3136 次 2月前

#1楼
发帖时间:2023-01-10 17:43:31   |   回复数:0
游客组