Asuka601
隐世仙人♂

[更 早] [香港] [动作] [WEB-1080P] 连城诀[国语配音/中文字幕].A.Deadly.Secret.1980.1080p.WEB-DL.H265.AAC-DreamHD 1.08GB

-->

完整标题:连城诀[国语配音/中文字幕].A.Deadly.Secret.1980.1080p.WEB-DL.H265.AAC-DreamHD 1.08GB



◎标  题 连城诀
◎译  名 A Deadly Secret
◎片  名 連城訣
◎年  代 1980
◎产  地 中国香港
◎类  别 动作 / 武侠
◎语  言 粤语
◎上映日期 1980-09-23
◎IMDb评分 6.1/10 (111人评价)
◎IMDb链接 https://www.imdb.com/title/tt0165363/
◎豆瓣评分 6.5/10 (1324人评价)
◎豆瓣链接 https://movie.douban.com/subject/2135387/
◎片  长 90分钟
◎导  演 牟敦芾 Tun Fei Mou
◎编  剧 金庸 Louis Cha
◎演  员 施思 Szu Shih
      岳华 Hua Yueh
      詹森 Shen Chan
      张作舟 Chok Chow Cheung
      尹尚林 Hsiang Lin Yin
      江全 Chuen Chiang
      张志平 Chi Ping Chang
      雷达 Tat Lui
      张石庵 Shih-Ou Chang
      刘准 Cheun Lau
      陈绍佳 Shao-Chia Chen
      张炳灿 Bing-chan Cheung
      黃志明 Chi-Ming Wong
      曹达华 Tat-wah Cho
      韦弘 Hung Wei
      夏光莉 Kwan-Li Shen
      关锋 Kwan Fung
      冯敬文 Ging Man Fung
      白彪 Jason Pai
      吴元俊 Yuan-chun Wu
      廖丽玲 Lai-Ling Liu
      艾飞 Ai Fei
      王清河 Ching-Ho Wang

◎简  介
    武林名家梅念笙獲得秘典「神照經」及可以成為天下第一巨富的「連城訣」,惹來徒兒萬震山、言遠平、戚長發追殺,梅遂將「神照經」及「連城訣」傳給救其性命的丁典(白彪)。丁與知府凌退思(岳華)的女兒霜華(施思)相戀,凌為奪「神照經」及「連城訣」,將丁打下牢獄,要丁說出秘密。狄雲(吳元俊)與師妹戚芳(廖麗玲)相戀,竟被陷害打下牢獄。死囚獄中,狄認識丁,更被傳授「神照功」。凌為了要獲得秘密,竟狠心對女兒下毒手,丁憤然與狄越獄,結果被毒死,而「連城訣」竟然在……

点击图片可查看大图

软字幕无法在截图上展现,HDR版本/杜比视界版本截图会出现颜色异常,请使用支持的设备播放!

##### MediaInfo ######
General
Unique ID : 287177141057486724012570879866743488042 (0xD80C4E3741171A263AB817CAD5DAFE2A)
Complete name : A.Deadly.Secret.1980.1080p.WEB-DL.H265.AAC-DreamHD.mkv
Duration : 1 h 30 min
Overall bit rate : 1 704 kb/s

Video
ID : 1
Format : HEVC
Format/Info : High Efficiency Video Coding
Format profile : Main@L4@Main
Codec ID : V_MPEGH/ISO/HEVC
Duration : 1 h 30 min
Bit rate : 1 512 kb/s
Width : 1 920 pixels
Height : 816 pixels
Display aspect ratio : 2.35:1
Frame rate mode : Constant
Frame rate : 24.000 FPS
Color space : YUV
Chroma subsampling : 4:2:0
Bit depth : 8 bits
Bits/(Pixel*Frame) : 0.040
Stream size : 982 MiB (89%)
Default : Yes
Forced : No
Color range : Limited

Audio
ID : 2
Format : AAC LC
Format/Info : Advanced Audio Codec Low Complexity
Codec ID : A_AAC-2
Duration : 1 h 30 min
Bit rate : 192 kb/s
Channel(s) : 2 channels
Channel layout : L R
Sampling rate : 44.1 kHz
Frame rate : 43.066 FPS (1024 SPF)
Compression mode : Lossy
Stream size : 123 MiB (11%)
Title : Mandarin [AAC2.0]
Language : Chinese
Default : Yes
Forced : No


部分资源为软字幕,移动端推荐播放器:MxPlayer,nPlayer,infuse ,其他播放器请自行尝试。

部分资源为软字幕,电脑端推荐播放器:PotPlayer,完美解码,KMPLAYER,其他播放器请自行尝试。



1 个附件 售价 大小 下载 时间

A.Deadly.Secret.1980.1080p.WEB-DL.H265.AAC-DreamHD[1LOU.ME].torrent 0 金币 5.78K 1484 次 1月前

#1楼
发帖时间:2024-02-23 20:10:45   |   回复数:1
Jasongreat
武林盟主
那这到底是国语还是粤语的啊;不管是那种语言;都先多谢楼主的分享了
1月前 #2楼
游客组