travismk
一代宗师

[2009] [其它] [其它] [WEB-1080P] 永远的朋友 Friends.Forever.2009.GERMAN.1080p.NF.WEBRip.DDP5.1.x264-SiGLA 2.13GB

-->

帖子完整标题:永远的朋友 Friends.Forever.2009.GERMAN.1080p.NF.WEBRip.DDP5.1.x264-SiGLA 2.13GB



◎标  题 永远的朋友
◎译  名 Friends Forever
◎片  名 Mullewapp - Das große Kinoabenteuer der Freunde
◎年  代 2009
◎产  地 德国 / 意大利 / 法国
◎类  别 动画 / 家庭
◎语  言 德语
◎上映日期 2009-07-23
◎IMDb评分 5.6/10 (193人评价)
◎IMDb链接 https://www.imdb.com/title/tt1395050/
◎豆瓣评分 5.8/10 (130人评价)
◎豆瓣链接 https://movie.douban.com/subject/3744884/
◎片  长 77 分钟
◎编  剧 阿希姆·冯·博里斯 Achim von Borries
◎演  员 约阿希姆·克罗尔 Joachim Król
      卡塔琳娜·薇特 Katarina Witt
      本诺·菲尔曼 Benno Fürmann
      Rene Heinersdorff Rene Heinersdorff
      克里斯托夫·玛丽亚·赫布斯特 Christoph Maria Herbst
      Hildegard Krekel Hildegard Krekel
      汉斯·托伊舍 Hans Teuscher

◎简  介
  小老鼠约翰尼是一个失败的演员,失去了自己的角色,成为一个流浪者,对于自己在城市中经历的这一切灾难,他需要一些时间来调整,而放松自己的最好去处莫过于“好朋友”农场,它在一个小山村,恬静适宜。很快,小老鼠约翰尼和农场的弗兰兹和沃尔德马成为好朋友,当他们的另一位朋友,小山羊云云走失后,三位新结成的朋友将面临一次历险来找回他们的山羊朋友。

Video
ID : 1
Format : AVC
Format/Info : Advanced Video Codec
Format profile : [email protected]
Format settings : CABAC / 3 Ref Frames
Format settings, CABAC : Yes
Format settings, Reference frames : 3 frames
Codec ID : V_MPEG4/ISO/AVC
Duration : 1 h 16 min
Bit rate mode : Variable
Bit rate : 3 320 kb/s
Maximum bit rate : 4 980 kb/s
Width : 1 920 pixels
Height : 1 080 pixels
Display aspect ratio : 16:9
Frame rate mode : Constant
Frame rate : 24.000 FPS
Color space : YUV
Chroma subsampling : 4:2:0
Bit depth : 8 bits
Scan type : Progressive
Bits/(Pixel*Frame) : 0.067
Stream size : 1.78 GiB (84%)
Writing library : x264 core 148 r2727 7d026e8
Encoding settings : cabac=1 / ref=3 / deblock=1:0:0 / analyse=0x1:0x111 / me=umh / subme=10 / psy=1 / psy_rd=1.00:0.00 / mixed_ref=1 / me_range=24 / chroma_me=1 / trellis=2 / 8x8dct=0 / cqm=0 / deadzone=21,11 / fast_pskip=1 / chroma_qp_offset=-2 / threads=6 / lookahead_threads=1 / sliced_threads=0 / nr=0 / decimate=1 / interlaced=0 / bluray_compat=0 / stitchable=1 / constrained_intra=0 / bframes=2 / b_pyramid=0 / b_adapt=2 / b_bias=0 / direct=3 / weightb=1 / open_gop=0 / weightp=2 / keyint=250 / keyint_min=24 / scenecut=0 / intra_refresh=0 / rc_lookahead=48 / rc=2pass / mbtree=1 / bitrate=3320 / ratetol=1.0 / qcomp=0.50 / qpmin=6 / qpmax=51 / qpstep=4 / cplxblur=20.0 / qblur=0.5 / vbv_maxrate=4980 / vbv_bufsize=6640 / nal_hrd=vbr / filler=0 / ip_ratio=1.40 / aq=1:1.00
Language : German
Default : Yes
Forced : No

Audio
ID : 2
Format : E-AC-3
Format/Info : Enhanced AC-3
Commercial name : Dolby Digital Plus
Codec ID : A_EAC3
Duration : 1 h 16 min
Bit rate mode : Constant
Bit rate : 640 kb/s
Channel(s) : 6 channels
Channel layout : L R C LFE Ls Rs
Sampling rate : 48.0 kHz
Frame rate : 31.250 FPS (1536 SPF)
Compression mode : Lossy
Stream size : 352 MiB (16%)
Language : German
Service kind : Complete Main
Default : Yes
Forced : No

Text #1
ID : 3
Format : UTF-8
Codec ID : S_TEXT/UTF8
Codec ID/Info : UTF-8 Plain Text
Duration : 1 h 15 min
Bit rate : 46 b/s
Frame rate : 0.155 FPS
Count of elements : 706
Stream size : 25.6 KiB (0%)
Language : English
Default : Yes
Forced : No

Text #2
ID : 4
Format : UTF-8
Codec ID : S_TEXT/UTF8
Codec ID/Info : UTF-8 Plain Text
Duration : 1 h 15 min
Bit rate : 46 b/s
Frame rate : 0.152 FPS
Count of elements : 692
Stream size : 25.7 KiB (0%)
Language : Danish
Default : No
Forced : No

Text #3
ID : 5
Format : UTF-8
Codec ID : S_TEXT/UTF8
Codec ID/Info : UTF-8 Plain Text
Duration : 1 h 14 min
Bit rate : 53 b/s
Frame rate : 0.149 FPS
Count of elements : 664
Stream size : 29.0 KiB (0%)
Title : SDH
Language : German
Default : No
Forced : No

Text #4
ID : 6
Format : UTF-8
Codec ID : S_TEXT/UTF8
Codec ID/Info : UTF-8 Plain Text
Duration : 1 h 15 min
Bit rate : 71 b/s
Frame rate : 0.143 FPS
Count of elements : 651
Stream size : 39.7 KiB (0%)
Language : Greek
Default : No
Forced : No

Text #5
ID : 7
Format : UTF-8
Codec ID : S_TEXT/UTF8
Codec ID/Info : UTF-8 Plain Text
Duration : 1 h 15 min
Bit rate : 46 b/s
Frame rate : 0.151 FPS
Count of elements : 689
Stream size : 25.9 KiB (0%)
Language : Finnish
Default : No
Forced : No

Text #6
ID : 8
Format : UTF-8
Codec ID : S_TEXT/UTF8
Codec ID/Info : UTF-8 Plain Text
Duration : 1 h 15 min
Bit rate : 43 b/s
Frame rate : 0.152 FPS
Count of elements : 693
Stream size : 24.4 KiB (0%)
Language : Norwegian Bokmal
Default : No
Forced : No

Text #7
ID : 9
Format : UTF-8
Codec ID : S_TEXT/UTF8
Codec ID/Info : UTF-8 Plain Text
Duration : 1 h 15 min
Bit rate : 47 b/s
Frame rate : 0.153 FPS
Count of elements : 697
Stream size : 26.5 KiB (0%)
Language : Dutch
Default : No
Forced : No

Text #8
ID : 10
Format : UTF-8
Codec ID : S_TEXT/UTF8
Codec ID/Info : UTF-8 Plain Text
Duration : 1 h 15 min
Bit rate : 67 b/s
Frame rate : 0.151 FPS
Count of elements : 689
Stream size : 37.5 KiB (0%)
Language : Russian
Default : No
Forced : No

Text #9
ID : 11
Format : UTF-8
Codec ID : S_TEXT/UTF8
Codec ID/Info : UTF-8 Plain Text
Duration : 1 h 15 min
Bit rate : 44 b/s
Frame rate : 0.150 FPS
Count of elements : 683
Stream size : 24.7 KiB (0%)
Language : Swedish
Default : No
Forced : No

Menu
00:00:00.000 : en:Chapter 01
01:11:37.450 : en:Credits





1 个附件 售价 大小 下载 时间

Friends.Forever.2009.GERMAN.1080p.NF.WEBRip.DDP5.1.x264-SiGLA.torrent 0 金币 21.96K 154 次 4天前

#1楼
发帖时间:2022-08-06 11:29:00   |   回复数:0
游客组