topgood
武林盟主

[2010] [其它] [剧情] [WEB-1080P] 爆炸 The.Attempt.Dossier.2010.SPANISH.1080p.AMZN.WEBRip.DDP5.1.x264-SiGLA 8.65GB

-->

帖子完整标题:爆炸 The.Attempt.Dossier.2010.SPANISH.1080p.AMZN.WEBRip.DDP5.1.x264-SiGLA 8.65GB



◎标  题 爆炸
◎译  名 El atentado
◎片  名 The Attempt Dossier
◎年  代 2010
◎产  地 墨西哥
◎类  别 剧情 / 历史 / 战争
◎语  言 西班牙语
◎上映日期 2010
◎IMDb评分 6.1/10 (188人评价)
◎IMDb链接 https://www.imdb.com/title/tt1560618/
◎豆瓣链接 https://movie.douban.com/subject/5159559/
◎片  长 120分钟
◎导  演 豪尔赫·方斯 Jorge Fons
◎编  剧 维森特·雷里诺 Vicente Leñero
      豪尔赫·方斯 Jorge Fons
◎演  员 丹尼尔·希梅内斯·卡乔 Daniel Giménez Cacho
      何塞·马利亚·亚兹皮克 José María Yazpik
      朱利奥·布拉科 Julio Bracho
      马里奥·萨拉格萨 Mario Zaragoza
      Salvador Sánchez Salvador Sánchez
      加斯东·梅洛 Gastón Melo
      乔塞·玛丽亚·塔维拉 José María de Tavira
      胡安·卡洛斯·科隆博 Juan Carlos Colombo
      Carlos Cobos Carlos Cobos
      艾琳·阿苏埃拉 Irene Azuela
      玛丽亚罗霍 María Rojo
      亚历桑德罗·卡尔瓦 Alejandro Calva
      迭戈·洛佩斯·里维拉 Diego López Rivera
      Lucía Álvarez Lucía Álvarez
      Guillermo Granillo Guillermo Granillo
      Sigfrido Barjau Sigfrido Barjau
      Sandra Cabriada Sandra Cabriada
      Luisa Guala Luisa Guala
      华金·席尔瓦 Joaquin Silva

Video
ID : 1
Format : AVC
Format/Info : Advanced Video Codec
Format profile : [email protected]
Format settings : CABAC / 4 Ref Frames
Format settings, CABAC : Yes
Format settings, Reference frames : 4 frames
Codec ID : V_MPEG4/ISO/AVC
Duration : 2 h 5 min
Bit rate mode : Constant
Bit rate : 9 233 kb/s
Nominal bit rate : 10 000 kb/s
Width : 1 920 pixels
Height : 1 080 pixels
Display aspect ratio : 16:9
Frame rate mode : Constant
Frame rate : 23.976 (24000/1001/189150) FPS
Color space : YUV
Chroma subsampling : 4:2:0
Bit depth : 8 bits
Scan type : Progressive
Bits/(Pixel*Frame) : 0.186
Stream size : 8.09 GiB (93%)
Default : Yes
Forced : No
Color range : Limited
Color primaries : BT.709
Transfer characteristics : BT.709
Matrix coefficients : BT.709

Audio
ID : 2
Format : E-AC-3
Format/Info : Enhanced AC-3
Commercial name : Dolby Digital Plus
Codec ID : A_EAC3
Duration : 2 h 5 min
Bit rate mode : Constant
Bit rate : 640 kb/s
Channel(s) : 6 channels
Channel layout : L R C LFE Ls Rs
Sampling rate : 48.0 kHz
Frame rate : 31.250 FPS (1536 SPF)
Compression mode : Lossy
Stream size : 574 MiB (6%)
Language : Spanish
Service kind : Complete Main
Default : Yes
Forced : No

Text #1
ID : 3
Format : UTF-8
Codec ID : S_TEXT/UTF8
Codec ID/Info : UTF-8 Plain Text
Duration : 1 h 54 min
Bit rate : 37 b/s
Count of elements : 1167
Stream size : 31.8 KiB (0%)
Title : Brazilian
Language : Portuguese
Default : No
Forced : No

Text #2
ID : 4
Format : UTF-8
Codec ID : S_TEXT/UTF8
Codec ID/Info : UTF-8 Plain Text
Duration : 1 h 53 min
Bit rate : 40 b/s
Count of elements : 1188
Stream size : 33.4 KiB (0%)
Language : English
Default : No
Forced : No





1 个附件 售价 大小 下载 时间

The.Attempt.Dossier.2010.SPANISH.1080p.AMZN.WEBRip.DDP5.1.x264-SiGLA.torrent 0 金币 22.29K 252 次 13天前

#1楼
发帖时间:2022-06-23 17:34:27   |   回复数:0
游客组