fg603603
一代宗师

[更 早] [欧美] [剧情] [BD-4K] 巨人传 Giant.1956.2160p.BluRay.x264.8bit.SDR.DTS-HD.MA.2.0-SWTYBLZ 79.89GB

-->

帖子完整标题:巨人传 Giant.1956.2160p.BluRay.x264.8bit.SDR.DTS-HD.MA.2.0-SWTYBLZ 79.89GB



◎标  题 巨人传
◎译  名 巨人
◎片  名 Giant
◎年  代 1956
◎产  地 美国
◎类  别 剧情 / 爱情 / 西部
◎语  言 英语 / 西班牙语
◎上映日期 1956-11-24
◎IMDb评分 7.6/10 (37371人评价)
◎IMDb链接 https://www.imdb.com/title/tt0049261/
◎豆瓣评分 8.0/10 (2669人评价)
◎豆瓣链接 https://movie.douban.com/subject/1298289/
◎片  长 201 分钟
◎导  演 乔治·史蒂文斯 George Stevens
◎编  剧 弗雷德·吉奥尔 Fred Guiol
      伊凡·莫弗特 Ivan Moffat
      艾德娜·费勃 Edna Ferber
◎演  员 罗克·赫德森 Rock Hudson
      伊丽莎白·泰勒 Elizabeth Taylor
      詹姆斯·迪恩 James Dean
      杰克·洛马斯 Jack Lomas
      蒂娜·梅纳德 Tina Menard
      Judy Lent Judy Lent
      罗伯特·尼克尔斯 Robert Nichols
      哈罗德·米勒 Harold Miller
      汤姆·梦露 Tom Monroe
      Maxine Gates Maxine Gates
      肯纳G.肯普 Kenner G. Kemp
      Maurice Jara Maurice Jara
      Paul Kruger Paul Kruger
      查尔斯梅瑞狄斯 Charles Meredith
      Jill Lent Jill Lent
      维克托·米兰 Victor Millan
      Kermit Maynard Kermit Maynard
      亚历山大·斯库比 Alexander Scourby
      罗德·泰勒 Rod Taylor
      杰弗里·塞尔 Jeffrey Sayre
      Napoleon Whiting Napoleon Whiting
      John Wiley John Wiley
      丹·怀特 Dan White
      谢布·伍利 Sheb Wooley
      Rush Williams Rush Williams
      简·维特尔斯 Jane Withers
      Guy Teague Guy Teague
      伯特史蒂文斯 Bert Stevens
      Natividad Vacío Natividad Vacío
      Mickey Simpson Mickey Simpson
      Max Terhune Max Terhune
      Slim Talbot Slim Talbot
      Felipe Turich Felipe Turich
      Julian Rivero Julian Rivero
      弗兰·本内特 Fran Bennett
      山姆·哈里斯 Sam Harris
      Marc Hamilton Marc Hamilton
      卡罗尔·贝克 Carroll Baker
      保罗·菲克斯 Paul Fix
      厄尔·霍利曼 Earl Holliman
      丹尼斯·霍珀 Dennis Hopper
      查尔斯瓦茨 Charles Watts
      雷·惠特利 Ray Whitley
      梅赛德丝·麦坎布雷奇 Mercedes McCambridge
      蒙特·黑尔 Monte Hale
      芭芭拉·蓓丽 Barbara Barrie
      萨尔·米涅奥 Sal Mineo
      齐尔·威尔斯 Chill Wills
      尼克·亚当斯 Nick Adams
      Elsa Aguirre Elsa Aguirre
      埃迪·贝克 Eddie Baker
      Ray Bennett Ray Bennett
      斯图尔特·霍姆斯 Stuart Holmes
      Ethel Greenwood Ethel Greenwood
      Pilar Del Rey Pilar Del Rey
      朱迪思·伊夫林 Judith Evelyn
      乔治·邓恩 George Dunn
      Dana Dillaway Dana Dillaway
      Tex Driscoll Tex Driscoll
      Ella Ethridge Ella Ethridge
      Juney Ellis Juney Ellis
      Pete Dunn Pete Dunn
      埃尔莎·卡德纳斯 Elsa Cárdenas
      Georgann Cashen Georgann Cashen
      Carolyn Craig Carolyn Craig
      Mary Ann Cashen Mary Ann Cashen
      Fran Bennett Fran Bennett
      诺琳·纳什 Noreen Nash
      乔治·史蒂文斯 George Stevens
      亨利·金斯伯格 Henry Ginsberg
      迪米特里·迪奥姆金 Dimitri Tiomkin
      威廉·C·梅勒 William C. Mellor
      威廉·霍恩贝克 William Hornbeck
      鲍里斯·莱文 Boris Leven
      拉尔夫·S·赫斯特 Ralph S. Hurst
      玛约莉·拜斯特 Marjorie Best
      Gordon Bau Gordon Bau
      Joseph E. Rickards Joseph E. Rickards
      弗雷德·吉奥尔 Fred Guiol
      杰克·科斯格罗夫 Jack Cosgrove

◎标  签 美国 / JamesDean / 伊丽莎白·泰勒 / 1956 / 爱情 / 美国电影 / 经典 / 西部

◎简  介
  故事发生在阳光普照的得克萨斯州,比克(洛克·哈德森 Rock Hudson 饰)是成长和生活在那里的一名牧场主人,德州和煦的阳光将他的性格也照耀得温厚而老实。东部来的漂亮女人莱斯利(伊丽莎白·泰勒 Elizabeth Taylor 饰)吸引了比克的目光,常年生活在西部的他从未见过像她一样的女人,很快,两人就坠入了情网之中,并且最终携手步入了婚姻的殿堂,就这样,莱斯利成为了农场的女主人。
杰特(詹姆斯·迪恩 James Dean 饰)是在比克农场里打工的长工,一次偶然的机会里,他获得了一块可以自行开垦的荒地。哪知道杰特走了大运,在这块地的地底下竟然埋藏着价值连城的石油,杰特一夜暴富。

Video
ID : 1
Format : AVC
Format/Info : Advanced Video Codec
Format profile : [email protected]
Format settings : CABAC / 5 Ref Frames
Format settings, CABAC : Yes
Format settings, Reference frames : 5 frames
Codec ID : V_MPEG4/ISO/AVC
Duration : 3 h 21 min
Bit rate : 54.1 Mb/s
Width : 3 586 pixels
Height : 2 160 pixels
Display aspect ratio : 5:3
Frame rate mode : Constant
Frame rate : 23.976 (24000/1001/189150) FPS
Color space : YUV
Chroma subsampling : 4:2:0
Bit depth : 8 bits
Scan type : Progressive
Bits/(Pixel*Frame) : 0.291
Stream size : 76.0 GiB (96%)
Writing library : x264 core 157 r2935 545de2f
Encoding settings : cabac=1 / ref=5 / deblock=1:-1:-1 / analyse=0x3:0x113 / me=umh / subme=10 / psy=1 / psy_rd=1.00:0.15 / mixed_ref=1 / me_range=48 / chroma_me=1 / trellis=2 / 8x8dct=1 / cqm=0 / deadzone=21,11 / fast_pskip=1 / chroma_qp_offset=-3 / threads=48 / lookahead_threads=4 / sliced_threads=0 / nr=0 / decimate=0 / interlaced=0 / bluray_compat=0 / constrained_intra=0 / bframes=3 / b_pyramid=2 / b_adapt=2 / b_bias=0 / direct=3 / weightb=1 / open_gop=0 / weightp=2 / keyint=250 / keyint_min=23 / scenecut=40 / intra_refresh=0 / rc_lookahead=50 / rc=crf / mbtree=1 / crf=20.0 / qcomp=0.60 / qpmin=0 / qpmax=69 / qpstep=4 / ip_ratio=1.40 / aq=1:1.00
Default : Yes
Forced : No

Audio #1
ID : 2
ID in the original source medium : 4352 (0x1100)
Format : DTS XLL
Format/Info : Digital Theater Systems
Commercial name : DTS-HD Master Audio
Codec ID : A_DTS
Duration : 3 h 21 min
Bit rate mode : Variable
Bit rate : 1 783 kb/s
Channel(s) : 2 channels
Channel layout : L R
Sampling rate : 48.0 kHz
Frame rate : 93.750 FPS (512 SPF)
Bit depth : 24 bits
Compression mode : Lossless
Stream size : 2.50 GiB (3%)
Title : DTS-HD MA 2.0
Language : English
Default : Yes
Forced : No
Original source medium : Blu-ray

Audio #2
ID : 3
Format : AC-3
Format/Info : Audio Coding 3
Commercial name : Dolby Digital
Codec ID : A_AC3
Duration : 3 h 21 min
Bit rate mode : Constant
Bit rate : 640 kb/s
Channel(s) : 2 channels
Channel layout : L R
Sampling rate : 48.0 kHz
Frame rate : 31.250 FPS (1536 SPF)
Compression mode : Lossy
Stream size : 921 MiB (1%)
Title : DD 2.0
Language : English
Service kind : Complete Main
Default : No
Forced : No

Text #1
ID : 4
Format : UTF-8
Codec ID : S_TEXT/UTF8
Codec ID/Info : UTF-8 Plain Text
Duration : 3 h 13 min
Bit rate : 54 b/s
Count of elements : 2164
Stream size : 77.4 KiB (0%)
Language : English
Default : Yes
Forced : No

Text #2
ID : 5
Format : UTF-8
Codec ID : S_TEXT/UTF8
Codec ID/Info : UTF-8 Plain Text
Duration : 3 h 16 min
Bit rate : 56 b/s
Count of elements : 2338
Stream size : 80.5 KiB (0%)
Title : SDH
Language : English
Default : No
Forced : No

Text #3
ID : 6
ID in the original source medium : 4768 (0x12A0)
Format : PGS
Muxing mode : zlib
Codec ID : S_HDMV/PGS
Codec ID/Info : Picture based subtitle format used on BDs/HD-DVDs
Duration : 3 h 16 min
Bit rate : 32.3 kb/s
Count of elements : 4820
Stream size : 45.4 MiB (0%)
Language : English
Default : No
Forced : No
Original source medium : Blu-ray

Text #4
ID : 7
ID in the original source medium : 4769 (0x12A1)
Format : PGS
Muxing mode : zlib
Codec ID : S_HDMV/PGS
Codec ID/Info : Picture based subtitle format used on BDs/HD-DVDs
Duration : 3 h 17 min
Bit rate : 19.8 kb/s
Count of elements : 3218
Stream size : 28.0 MiB (0%)
Language : French
Default : No
Forced : No
Original source medium : Blu-ray

Text #5
ID : 8
ID in the original source medium : 4770 (0x12A2)
Format : PGS
Muxing mode : zlib
Codec ID : S_HDMV/PGS
Codec ID/Info : Picture based subtitle format used on BDs/HD-DVDs
Duration : 3 h 16 min
Bit rate : 32.8 kb/s
Count of elements : 4622
Stream size : 46.1 MiB (0%)
Language : German
Default : No
Forced : No
Original source medium : Blu-ray

Text #6
ID : 9
ID in the original source medium : 4771 (0x12A3)
Format : PGS
Muxing mode : zlib
Codec ID : S_HDMV/PGS
Codec ID/Info : Picture based subtitle format used on BDs/HD-DVDs
Duration : 3 h 15 min
Bit rate : 30.3 kb/s
Count of elements : 4696
Stream size : 42.4 MiB (0%)
Language : Italian
Default : No
Forced : No
Original source medium : Blu-ray

Text #7
ID : 10
ID in the original source medium : 4772 (0x12A4)
Format : PGS
Muxing mode : zlib
Codec ID : S_HDMV/PGS
Codec ID/Info : Picture based subtitle format used on BDs/HD-DVDs
Duration : 3 h 17 min
Bit rate : 22.0 kb/s
Count of elements : 4110
Stream size : 31.0 MiB (0%)
Language : Spanish
Default : No
Forced : No
Original source medium : Blu-ray

Text #8
ID : 11
ID in the original source medium : 4773 (0x12A5)
Format : PGS
Muxing mode : zlib
Codec ID : S_HDMV/PGS
Codec ID/Info : Picture based subtitle format used on BDs/HD-DVDs
Duration : 3 h 13 min
Bit rate : 21.4 kb/s
Count of elements : 2778
Stream size : 29.6 MiB (0%)
Language : Dutch
Default : No
Forced : No
Original source medium : Blu-ray

Text #9
ID : 12
ID in the original source medium : 4774 (0x12A6)
Format : PGS
Muxing mode : zlib
Codec ID : S_HDMV/PGS
Codec ID/Info : Picture based subtitle format used on BDs/HD-DVDs
Duration : 3 h 17 min
Bit rate : 26.7 kb/s
Count of elements : 4826
Stream size : 37.7 MiB (0%)
Language : Spanish
Default : No
Forced : No
Original source medium : Blu-ray

Menu
00:00:00.000 : en:Chapter 01
00:02:08.753 : en:Chapter 02
00:04:49.247 : en:Chapter 03
00:07:56.434 : en:Chapter 04
00:10:13.613 : en:Chapter 05
00:11:30.856 : en:Chapter 06
00:16:33.575 : en:Chapter 07
00:20:03.327 : en:Chapter 08
00:22:07.576 : en:Chapter 09
00:24:58.121 : en:Chapter 10
00:27:40.784 : en:Chapter 11
00:34:47.627 : en:Chapter 12
00:36:20.052 : en:Chapter 13
00:39:25.613 : en:Chapter 14
00:41:32.990 : en:Chapter 15
00:43:18.929 : en:Chapter 16
00:45:38.485 : en:Chapter 17
00:55:22.944 : en:Chapter 18
01:03:45.822 : en:Chapter 19
01:06:06.087 : en:Chapter 20
01:10:56.585 : en:Chapter 21
01:14:58.827 : en:Chapter 22
01:18:26.451 : en:Chapter 23
01:19:51.328 : en:Chapter 24
01:27:09.557 : en:Chapter 25
01:31:04.667 : en:Chapter 26
01:35:27.304 : en:Chapter 27
01:38:58.432 : en:Chapter 28
01:43:00.382 : en:Chapter 29
01:45:45.797 : en:Chapter 30
01:48:29.169 : en:Chapter 31
01:49:58.633 : en:Chapter 32
01:59:37.211 : en:Chapter 33
02:02:19.832 : en:Chapter 34
02:07:59.838 : en:Chapter 35
02:10:06.006 : en:Chapter 36
02:14:50.749 : en:Chapter 37
02:17:36.957 : en:Chapter 38
02:19:27.192 : en:Chapter 39
02:22:37.674 : en:Chapter 40
02:27:37.723 : en:Chapter 41
02:30:01.200 : en:Chapter 42
02:32:40.234 : en:Chapter 43
02:38:51.730 : en:Chapter 44
02:40:51.725 : en:Chapter 45
02:44:53.675 : en:Chapter 46
02:50:40.647 : en:Chapter 47
02:52:31.007 : en:Chapter 48
02:54:39.594 : en:Chapter 49
02:59:55.701 : en:Chapter 50
03:04:30.059 : en:Chapter 51
03:07:42.668 : en:Chapter 52
03:11:55.170 : en:Chapter 53
03:15:21.835 : en:Chapter 54
03:18:00.702 : en:Chapter 55
03:18:25.810 : en:Chapter 56





1 个附件 售价 大小 下载 时间

Giant.1956.2160p.BluRay.x264.8bit.SDR.DTS-HD.MA.2.0-SWTYBLZ.torrent 0 金币 100.56K 161 次 13天前

#1楼
发帖时间:2022-06-23 12:16:53   |   回复数:0
游客组