fg603603
一代宗师

[2010] [其它] [其它] [WEB-1080P] 销声 Go.Quiet.2010.1080p.WEBRip.AAC2.0.x264-Cinefeel 2.23GB

-->

帖子完整标题:销声 Go.Quiet.2010.1080p.WEBRip.AAC2.0.x264-Cinefeel 2.23GB



◎译  名 销声
◎片  名 Go Quiet
◎年  代 2010
◎产  地 冰岛 / 英国
◎类  别 音乐
◎语  言 英语
◎上映日期 2010
◎IMDb链接 https://www.imdb.com/title/tt1664651/
◎豆瓣评分 8.6/10 (145人评价)
◎豆瓣链接 https://movie.douban.com/subject/5151230/
◎片  长 UK: 45 分钟
◎导  演 迪恩·德布洛斯 Dean DeBlois (id:1018302)
◎演  员 乔恩·索尔·伯吉斯森 Jon Thor Birgisson (id:1047896)
      乔恩·索尔·伯吉斯森 Jon Thor Birgisson (id:1047896)
      迪恩·德布洛斯 Dean DeBlois (id:1018302)

Video
ID : 1
Format : AVC
Format/Info : Advanced Video Codec
Format profile : [email protected]
Format settings : CABAC / 4 Ref Frames
Format settings, CABAC : Yes
Format settings, Reference frames : 4 frames
Codec ID : V_MPEG4/ISO/AVC
Duration : 45 min 35 s
Bit rate : 6 835 kb/s
Width : 1 912 pixels
Height : 1 072 pixels
Display aspect ratio : 16:9
Frame rate mode : Constant
Frame rate : 25.000 FPS
Color space : YUV
Chroma subsampling : 4:2:0
Bit depth : 8 bits
Scan type : Progressive
Bits/(Pixel*Frame) : 0.133
Stream size : 2.18 GiB (98%)
Default : Yes
Forced : No
Color range : Limited
Color primaries : BT.709
Transfer characteristics : BT.709
Matrix coefficients : BT.709

Audio
ID : 2
Format : AAC LC
Format/Info : Advanced Audio Codec Low Complexity
Codec ID : A_AAC-2
Duration : 45 min 35 s
Bit rate : 155 kb/s
Channel(s) : 2 channels
Channel layout : L R
Sampling rate : 48.0 kHz
Frame rate : 46.875 FPS (1024 SPF)
Compression mode : Lossy
Stream size : 50.4 MiB (2%)
Language : English
Default : Yes
Forced : No

Menu
00:00:00.000 : Intro
00:01:54.000 : Animal Arithmetic
00:06:39.000 : Go Do
00:12:04.000 : Grow Till Tall
00:15:48.000 : Tornado
00:21:46.000 : Hengil??s
00:26:58.000 : Kolni?°ur
00:30:38.000 : Sinking Friendships
00:35:03.000 : Boy Lilikoi
00:40:46.000 : Around Us
00:43:46.000 : Credits





1 个附件 售价 大小 下载 时间

Go.Quiet.2010.1080p.WEBRip.AAC2.0.x264-Cinefeel.torrent 0 金币 22.91K 231 次 1月前

#1楼
发帖时间:2022-05-22 20:32:48   |   回复数:0
游客组