topgood
武林盟主

[2021] [美国] [其它] [BD-4K] 不要开枪 Hold.Your.Fire.2021.2160p.WEB-DL.x265.10bit.SDR.DD5.1-KDOC 8.11GB

-->

帖子完整标题:不要开枪 Hold.Your.Fire.2021.2160p.WEB-DL.x265.10bit.SDR.DD5.1-KDOC 8.11GB



◎译  名 不要开枪
◎片  名 Hold Your Fire
◎年  代 2021
◎产  地 美国
◎类  别 纪录片
◎语  言 英语
◎上映日期 2021-09-10(多伦多电影节) / 2022-05-20(美国)
◎IMDb链接 https://www.imdb.com/title/tt15196796/
◎豆瓣链接 https://movie.douban.com/subject/35558324/
◎片  长 93分钟
◎导  演 Stefan Forbes Stefan Forbes (id:1470738)

◎简  介
  Captives, cops, and robbers in New York City’s longest hostage siege reflect in this suspenseful and enlightening take on an event long misunderstood.

Video
ID : 1
Format : HEVC
Format/Info : High Efficiency Video Coding
Format profile : Main [email protected]@High
Codec ID : V_MPEGH/ISO/HEVC
Duration : 1 h 34 min
Bit rate : 11.9 Mb/s
Width : 3 820 pixels
Height : 2 140 pixels
Display aspect ratio : 16:9
Frame rate mode : Constant
Frame rate : 23.976 FPS
Color space : YUV
Chroma subsampling : 4:2:0
Bit depth : 10 bits
Bits/(Pixel*Frame) : 0.060
Stream size : 7.86 GiB (97%)
Default : Yes
Forced : No
Color range : Limited
Color primaries : BT.709
Transfer characteristics : BT.709
Matrix coefficients : BT.709

Audio
ID : 2
Format : AC-3
Format/Info : Audio Coding 3
Commercial name : Dolby Digital
Codec ID : A_AC3
Duration : 1 h 34 min
Bit rate mode : Constant
Bit rate : 384 kb/s
Channel(s) : 6 channels
Channel layout : L R C LFE Ls Rs
Sampling rate : 48.0 kHz
Frame rate : 31.250 FPS (1536 SPF)
Compression mode : Lossy
Stream size : 261 MiB (3%)
Language : English
Service kind : Complete Main
Default : Yes
Forced : No

Text
ID : 3
Format : UTF-8
Codec ID : S_TEXT/UTF8
Codec ID/Info : UTF-8 Plain Text
Duration : 1 h 33 min
Bit rate : 83 b/s
Count of elements : 1717
Stream size : 57.3 KiB (0%)
Title : English CC
Language : English
Default : No
Forced : No

Menu
00:00:00.000 : en:Chapter 01
00:10:35.710 : en:Chapter 02
00:20:37.360 : en:Chapter 03
00:30:26.030 : en:Chapter 04
00:40:18.160 : en:Chapter 05
00:50:53.500 : en:Chapter 06
01:00:16.820 : en:Chapter 07
01:10:51.660 : en:Chapter 08
01:20:10.970 : en:Chapter 09
01:33:29.310 : en:Chapter 10





1 个附件 售价 大小 下载 时间

Hold.Your.Fire.2021.2160p.WEB-DL.x265.10bit.SDR.DD5.1-KDOC.torrent 0 金币 20.97K 266 次 1月前

#1楼
发帖时间:2022-05-22 17:50:57   |   回复数:0
游客组