squallzhao
一代宗师

[2007] [西班牙] [歌舞] [BD-720P] 巴赫前的寂静 The.Silence.Before.Bach.2007.720p.BluRay.x264-BiPOLAR 4.16GB

-->

帖子完整标题:巴赫前的寂静 The.Silence.Before.Bach.2007.720p.BluRay.x264-BiPOLAR 4.16GB



◎译  名 巴赫前的寂静 / The Silence Before Bach
◎片  名 Die Stille vor Bach
◎年  代 2007
◎产  地 西班牙
◎类  别 歌舞
◎语  言 西班牙语 / 德语 / 加泰罗尼亚语
◎上映日期 2007-12-21
◎IMDb链接 https://www.imdb.com/title/tt1079450/
◎豆瓣评分 7.6/10 (169人评价)
◎豆瓣链接 https://movie.douban.com/subject/2225442/
◎片  长 Spain: 102 分钟
◎导  演 佩雷·波尔塔贝利亚 Pere Portabella (id:1042310)
◎编  剧 佩雷·波尔塔贝利亚 Pere Portabella (id:1042310)
◎演  员 费奥多尔·阿特金 Féodor Atkine (id:1031196)
      亚历克斯·布伦德穆尔 àlex Brendemühl (id:1075354)
      Lina Lambert Lina Lambert (id:1114048)
      佩雷·波尔塔贝利亚 Pere Portabella (id:1042310)

◎简  介
  “The Silence before Bach” is an approach to music and the trades and subjects that surround it through Bach’s works.
A look at the profound dramaturgic relationship between image and music where the latter is not merely conceived as subsidiary to the image but as a subject of the narration in its own right.
The film springs from a previously defined musical structure. The soun...

◎获奖情况 (共1项)
  第64届威尼斯电影节 (2007)
  地平线单元奖 最佳影片(提名)

Video
ID : 1
Format : AVC
Format/Info : Advanced Video Codec
Format profile : [email protected]
Format settings : CABAC / 9 Ref Frames
Format settings, CABAC : Yes
Format settings, Reference frames : 9 frames
Codec ID : V_MPEG4/ISO/AVC
Duration : 1 h 41 min
Bit rate : 5 243 kb/s
Width : 1 280 pixels
Height : 692 pixels
Display aspect ratio : 1.85:1
Frame rate mode : Constant
Frame rate : 24.000 FPS
Color space : YUV
Chroma subsampling : 4:2:0
Bit depth : 8 bits
Scan type : Progressive
Bits/(Pixel*Frame) : 0.247
Stream size : 3.71 GiB (89%)
Writing library : x264 core 164 r3085 0bb85e8
Encoding settings : cabac=1 / ref=9 / deblock=1:-3:-3 / analyse=0x3:0x133 / me=umh / subme=10 / psy=1 / psy_rd=1.00:0.15 / mixed_ref=1 / me_range=24 / chroma_me=1 / trellis=2 / 8x8dct=1 / cqm=0 / deadzone=21,11 / fast_pskip=1 / chroma_qp_offset=-3 / threads=18 / lookahead_threads=3 / sliced_threads=0 / nr=0 / decimate=1 / interlaced=0 / bluray_compat=0 / constrained_intra=0 / bframes=8 / b_pyramid=2 / b_adapt=2 / b_bias=0 / direct=3 / weightb=1 / open_gop=0 / weightp=2 / keyint=250 / keyint_min=24 / scenecut=40 / intra_refresh=0 / rc_lookahead=60 / rc=crf / mbtree=1 / crf=17.0 / qcomp=0.60 / qpmin=0 / qpmax=69 / qpstep=4 / ip_ratio=1.40 / aq=3:0.60
Language : English
Default : Yes
Forced : No
Color range : Limited
Matrix coefficients : BT.709

Audio
ID : 2
Format : AC-3
Format/Info : Audio Coding 3
Commercial name : Dolby Digital
Codec ID : A_AC3
Duration : 1 h 41 min
Bit rate mode : Constant
Bit rate : 640 kb/s
Channel(s) : 6 channels
Channel layout : L R C LFE Ls Rs
Sampling rate : 48.0 kHz
Frame rate : 31.250 FPS (1536 SPF)
Compression mode : Lossy
Stream size : 463 MiB (11%)
Language : German
Service kind : Complete Main
Default : Yes
Forced : No

Text #1
ID : 3
Format : UTF-8
Codec ID : S_TEXT/UTF8
Codec ID/Info : UTF-8 Plain Text
Duration : 1 h 26 min
Bit rate : 21 b/s
Count of elements : 386
Stream size : 13.7 KiB (0%)
Title : English
Language : English
Default : Yes
Forced : Yes

Text #2
ID : 4
Format : PGS
Muxing mode : zlib
Codec ID : S_HDMV/PGS
Codec ID/Info : Picture based subtitle format used on BDs/HD-DVDs
Duration : 1 h 26 min
Bit rate : 5 225 b/s
Count of elements : 772
Stream size : 3.24 MiB (0%)
Title : English
Language : English
Default : No
Forced : No

Text #3
ID : 5
Format : UTF-8
Codec ID : S_TEXT/UTF8
Codec ID/Info : UTF-8 Plain Text
Duration : 1 h 26 min
Bit rate : 20 b/s
Count of elements : 386
Stream size : 12.9 KiB (0%)
Title : Danish
Language : Danish
Default : No
Forced : No

Text #4
ID : 6
Format : UTF-8
Codec ID : S_TEXT/UTF8
Codec ID/Info : UTF-8 Plain Text
Duration : 1 h 26 min
Bit rate : 21 b/s
Count of elements : 386
Stream size : 13.8 KiB (0%)
Title : Dutch
Language : Dutch
Default : No
Forced : No

Text #5
ID : 7
Format : UTF-8
Codec ID : S_TEXT/UTF8
Codec ID/Info : UTF-8 Plain Text
Duration : 1 h 20 min
Bit rate : 23 b/s
Count of elements : 384
Stream size : 13.8 KiB (0%)
Title : French
Language : French
Default : No
Forced : No

Text #6
ID : 8
Format : UTF-8
Codec ID : S_TEXT/UTF8
Codec ID/Info : UTF-8 Plain Text
Duration : 1 h 26 min
Bit rate : 25 b/s
Count of elements : 385
Stream size : 16.0 KiB (0%)
Title : German
Language : German
Default : No
Forced : No

Text #7
ID : 9
Format : UTF-8
Codec ID : S_TEXT/UTF8
Codec ID/Info : UTF-8 Plain Text
Duration : 1 h 26 min
Bit rate : 21 b/s
Count of elements : 364
Stream size : 13.7 KiB (0%)
Title : Italian
Language : Italian
Default : No
Forced : No

Text #8
ID : 10
Format : UTF-8
Codec ID : S_TEXT/UTF8
Codec ID/Info : UTF-8 Plain Text
Duration : 1 h 26 min
Bit rate : 20 b/s
Count of elements : 386
Stream size : 12.7 KiB (0%)
Title : Norwegian
Language : Norwegian
Default : No
Forced : No

Text #9
ID : 11
Format : UTF-8
Codec ID : S_TEXT/UTF8
Codec ID/Info : UTF-8 Plain Text
Duration : 1 h 26 min
Bit rate : 22 b/s
Count of elements : 389
Stream size : 14.0 KiB (0%)
Title : Portuguese
Language : Portuguese
Default : No
Forced : No

Text #10
ID : 12
Format : UTF-8
Codec ID : S_TEXT/UTF8
Codec ID/Info : UTF-8 Plain Text
Duration : 1 h 26 min
Bit rate : 14 b/s
Count of elements : 234
Stream size : 9.28 KiB (0%)
Title : Spanish
Language : Spanish
Default : No
Forced : No

Text #11
ID : 13
Format : UTF-8
Codec ID : S_TEXT/UTF8
Codec ID/Info : UTF-8 Plain Text
Duration : 1 h 26 min
Bit rate : 21 b/s
Count of elements : 386
Stream size : 13.9 KiB (0%)
Title : Swedish
Language : Swedish
Default : No
Forced : No

Text #12
ID : 14
Format : UTF-8
Codec ID : S_TEXT/UTF8
Codec ID/Info : UTF-8 Plain Text
Duration : 1 h 30 min
Bit rate : 21 b/s
Count of elements : 387
Stream size : 14.2 KiB (0%)
Title : Turkish
Language : Turkish
Default : No
Forced : No

Menu
00:00:00.000 : en:00:00:00.000
00:09:20.708 : en:00:09:20.708
00:18:04.750 : en:00:18:04.750
00:30:06.542 : en:00:30:06.542
00:40:47.000 : en:00:40:47.000
00:53:15.542 : en:00:53:15.542
01:03:14.792 : en:01:03:14.792
01:09:07.000 : en:01:09:07.000
01:17:22.750 : en:01:17:22.750
01:19:15.667 : en:01:19:15.667
01:22:38.542 : en:01:22:38.542
01:33:06.583 : en:01:33:06.583





1 个附件 售价 大小 下载 时间

The.Silence.Before.Bach.2007.720p.BluRay.x264-BiPOLAR.torrent 0 金币 21.57K 700 次 2022-2-11

#1楼
发帖时间:2022-02-11 08:18:48   |   回复数:0
游客组