fg603603
一代宗师

[2008] [其他] [喜剧] [BD-1080P] 母女情深/巴黎LOL:我的青春我的妈 LOL.Laughing.Out.Loud.2008.FRENCH.1080p.BluRay.x264.DTS-SbR 9

-->

帖子完整标题:母女情深/巴黎LOL:我的青春我的妈 LOL.Laughing.Out.Loud.2008.FRENCH.1080p.BluRay.x264.DTS-SbR 9.41GB



◎译  名 母女情深/巴黎LOL:我的青春我的妈(台)/放声大笑/萝尔
◎片  名 LOL (Laughing Out Loud) ?
◎年  代 2008
◎产  地 法国
◎类  别 喜剧
◎语  言 法语
◎上映日期 2008-10-27
◎豆瓣评分 7.3/10 from 3491 users
◎豆瓣链接 https://movie.douban.com/subject/3069312/
◎片  长 103 分钟
◎导  演 丽萨·阿祖洛斯 Lisa Azuelos / 理查德·西尔斯 Richard Sears
◎编  剧 丽萨·阿祖洛斯 Lisa Azuelos / 理查德·西尔斯 Richard Sears
◎主  演 苏菲·玛索 Sophie Marceau
      克丽丝塔·特瑞特 Christa Theret
      杰瑞米·卡彭 Jérémy Kapone
      Teresa Strasser Teresa Strasser
      亚历山德拉·阿斯提耶尔 Alexandre Astier
       Vincent Jasinskij
       fabien SOUDIERE
      Warren Guetta Warren Guetta
      若塞林·奎夫林 Jocelyn Quivrin
      Lise Lamétrie Lise Lamétrie
      让-克洛德·杜芬 Jean-Claude Dauphin
      克里斯托弗·伯勒 Christophe Bourseiller
      弗兰西丝·法比安 Fran?oise Fabian
      丽萨·阿祖洛斯 Lisa Azuelos
      玛丽昂·查芭索 Marion Chabassol

◎简  介

  和许多处于青春期的少女一样,罗拉(克丽丝塔·特瑞特 Christa Theret 饰)觉得自己的生活纠结成了一团乱麻。不仅仅是男友亚瑟(菲利克斯·穆阿提 Félix Moati 饰)的三心二意让她十分愤怒,她和母亲安娜(苏菲·玛索 Sophie Marceau 饰)之间的问题也似乎永远都得不到解决。然而,对于安娜来说,独自抚养一个个性叛逆而倔强的女儿究竟有多么辛苦只有她自己心里清楚,同时,在渐渐变得冷漠而陌生的女儿面前,安娜又何尝不是一个初出茅庐的“初学者”呢。
  
  好在事情的进展渐渐有了转机,在一连串的误解和矛盾中,母女二人之间的坚冰也在慢慢的溶解,当安娜和罗拉各自站在对方的角度来看待她们之间所发生的一切时,整个世界发生了翻天覆地的变化。

Video
ID : 1
Format : AVC
Format/Info : Advanced Video Codec
Format profile : [email protected]
Format settings : CABAC / 4 Ref Frames
Format settings, CABAC : Yes
Format settings, Reference frames : 4 frames
Codec ID : V_MPEG4/ISO/AVC
Duration : 1 h 42 min
Bit rate : 11.6 Mb/s
Width : 1 920 pixels
Height : 816 pixels
Display aspect ratio : 2.35:1
Frame rate mode : Constant
Frame rate : 24.000 FPS
Color space : YUV
Chroma subsampling : 4:2:0
Bit depth : 8 bits
Scan type : Progressive
Bits/(Pixel*Frame) : 0.309
Stream size : 8.32 GiB (88%)
Writing library : x264 core 164 r3079+60M cd8c3e1 devel [(8 & 10)[email protected] X86_64]
Encoding settings : cabac=1 / ref=4 / deblock=1:-3:-3 / analyse=0x3:0x133 / me=umh / subme=11 / psy=1 / fade_compensate=0.00 / psy_rd=1.00:0.00 / mixed_ref=1 / me_range=32 / chroma_me=1 / trellis=2 / 8x8dct=1 / cqm=0 / deadzone=21,11 / fast_pskip=1 / chroma_qp_offset=-2 / threads=32 / lookahead_threads=6 / sliced_threads=0 / nr=0 / decimate=1 / interlaced=0 / bluray_compat=0 / constrained_intra=0 / fgo=0 / bframes=10 / b_pyramid=2 / b_adapt=2 / b_bias=0 / direct=3 / weightb=1 / open_gop=0 / weightp=2 / keyint=250 / keyint_min=24 / scenecut=40 / intra_refresh=0 / rc=crf / mbtree=0 / crf=17.5000 / qcomp=0.65 / qpmin=0:0:0 / qpmax=69:69:69 / qpstep=4 / ip_ratio=1.25 / pb_ratio=1.20 / aq=1:0.60 / aq-sensitivity=10.00 / aq-factor=1.00:1.00:1.00 / aq2=0 / aq3=0
Language : French
Default : Yes
Forced : No

Audio
ID : 2
Format : DTS
Format/Info : Digital Theater Systems
Codec ID : A_DTS
Duration : 1 h 42 min
Bit rate mode : Constant
Bit rate : 1 509 kb/s
Channel(s) : 6 channels
Channel layout : C L R Ls Rs LFE
Sampling rate : 48.0 kHz
Frame rate : 93.750 FPS (512 SPF)
Bit depth : 16 bits
Compression mode : Lossy
Stream size : 1.08 GiB (11%)
Language : French
Default : Yes
Forced : No

Text #1
ID : 3
Format : ASS
Codec ID : S_TEXT/ASS
Codec ID/Info : Advanced Sub Station Alpha
Duration : 1 h 39 min
Bit rate : 175 b/s
Count of elements : 1080
Compression mode : Lossless
Stream size : 128 KiB (0%)
Language : Russian
Default : No
Forced : No

Text #2
ID : 4
Format : UTF-8
Codec ID : S_TEXT/UTF8
Codec ID/Info : UTF-8 Plain Text
Duration : 1 h 39 min
Bit rate : 143 b/s
Count of elements : 1080
Stream size : 105 KiB (0%)
Language : Russian
Default : No
Forced : No

Text #3
ID : 5
Format : ASS
Codec ID : S_TEXT/ASS
Codec ID/Info : Advanced Sub Station Alpha
Duration : 1 h 37 min
Bit rate : 119 b/s
Count of elements : 1702
Compression mode : Lossless
Stream size : 85.8 KiB (0%)
Title : Lixir
Language : English
Default : No
Forced : No

Text #4
ID : 6
Format : UTF-8
Codec ID : S_TEXT/UTF8
Codec ID/Info : UTF-8 Plain Text
Duration : 1 h 37 min
Bit rate : 67 b/s
Count of elements : 1703
Stream size : 48.6 KiB (0%)
Title : Lixir
Language : English
Default : No
Forced : No

Text #5
ID : 7
Format : UTF-8
Codec ID : S_TEXT/UTF8
Codec ID/Info : UTF-8 Plain Text
Duration : 10 min 10 s
Bit rate : 19 b/s
Count of elements : 55
Stream size : 1.45 KiB (0%)
Title : Forced
Language : French
Default : No
Forced : No

Text #6
ID : 8
Format : ASS
Codec ID : S_TEXT/ASS
Codec ID/Info : Advanced Sub Station Alpha
Duration : 1 h 42 min
Bit rate : 231 b/s
Count of elements : 2418
Compression mode : Lossless
Stream size : 174 KiB (0%)
Language : French
Default : No
Forced : No

Menu
00:00:00.000 : en:01. \"Allez! C\'est repatri!\"
00:04:56.000 : en:02. \"Dans le même bain\"
00:09:41.667 : en:03. Les lois de l\'attraction
00:15:54.417 : en:04. M+L
00:21:09.792 : en:05. Transgressions
00:27:25.500 : en:06. Fausses notes
00:33:07.000 : en:07. L\'anniversaire
00:41:21.917 : en:08. Série noire
00:49:51.833 : en:09. Le journal
00:56:55.250 : en:10. Si proches, si loin
01:01:09.000 : en:11. Le cas \"Lola\"
01:08:29.833 : en:12. Bagages
01:11:04.208 : en:13. Swinging London
01:16:53.958 : en:14. La première fois que...
01:22:26.167 : en:15. \"Trahir ses secrets\"
01:28:39.875 : en:16. A c?ur ouvert
01:32:37.667 : en:17. \"Lola est là!\"
01:38:30.375 : en:18. Générique de fin





1 个附件 售价 大小 下载 时间

LOL.Laughing.Out.Loud.2008.FRENCH.1080p.BluRay.x264.DTS-SbR.torrent 0 金币 24.16K 3017 次 4天前

#1楼
发帖时间:2022-01-15 11:34:15   |   回复数:1
liyouchai
隐世仙人♂
谢谢楼主分享资源
3天前 #2楼
游客组