travismk
一代宗师

[更 早] [其他] [剧情] [WEB-1080P] 拉普塔 Laputa.1986.FRENCH.1080p.AMZN.WEBRip.DDP2.0.x264-WELP 6.44GB

-->

帖子完整标题:拉普塔 Laputa.1986.FRENCH.1080p.AMZN.WEBRip.DDP2.0.x264-WELP 6.44GB



◎译  名 拉普塔
◎片  名 Laputa
◎年  代 1987
◎产  地 西德
◎类  别 剧情
◎语  言 德语
◎上映日期 1987-07-30
◎豆瓣评分 /10 from 0 users
◎豆瓣链接 https://movie.douban.com/subject/1305840/
◎片  长 92 分钟
◎导  演 贺玛·桑德斯-勃拉姆斯 Helma Sanders-Brahms
◎编  剧 贺玛·桑德斯-勃拉姆斯 Helma Sanders-Brahms
◎主  演 萨米·弗雷 Sami Frey
      克里斯提娜·杨达 Krystyna Janda

◎简  介

  本片和宫崎骏的《天空之城》没有任何关系。这是德国女导演
  
  Helma Sanders-Brahms作品,女主角Krystyna Janda获1986年蒙特利尔电影节最佳女演员奖。
  
  A French architect and a Polish photographer enjoy a love affair and meet regularly in Berlin for passionate weekends. Unable to decide whether they should start a steady relationship, they permanently break up with each other. The title is allegorical, in that West Berlin is named Laputa, the flying island that Jonathan Swift once wrote about.

Video
ID : 1
Format : AVC
Format/Info : Advanced Video Codec
Format profile : [email protected]
Format settings : CABAC / 4 Ref Frames
Format settings, CABAC : Yes
Format settings, Reference frames : 4 frames
Codec ID : V_MPEG4/ISO/AVC
Duration : 1 h 32 min
Bit rate mode : Constant
Bit rate : 10 000 kb/s
Width : 1 792 pixels
Height : 1 080 pixels
Display aspect ratio : 5:3
Frame rate mode : Constant
Frame rate : 24.000 FPS
Color space : YUV
Chroma subsampling : 4:2:0
Bit depth : 8 bits
Scan type : Progressive
Bits/(Pixel*Frame) : 0.215
Stream size : 6.29 GiB (98%)
Default : Yes
Forced : No
Color range : Limited
Color primaries : BT.709
Transfer characteristics : BT.709
Matrix coefficients : BT.709

Audio
ID : 2
Format : E-AC-3
Format/Info : Enhanced AC-3
Commercial name : Dolby Digital Plus
Codec ID : A_EAC3
Duration : 1 h 32 min
Bit rate mode : Constant
Bit rate : 224 kb/s
Channel(s) : 2 channels
Channel layout : L R
Sampling rate : 48.0 kHz
Frame rate : 31.250 FPS (1536 SPF)
Compression mode : Lossy
Stream size : 148 MiB (2%)
Language : French
Service kind : Complete Main
Default : Yes
Forced : No

Text #1
ID : 3
Format : UTF-8
Codec ID : S_TEXT/UTF8
Codec ID/Info : UTF-8 Plain Text
Duration : 1 h 28 min
Bit rate : 36 b/s
Count of elements : 573
Stream size : 23.4 KiB (0%)
Language : English
Default : No
Forced : No

Text #2
ID : 4
Format : UTF-8
Codec ID : S_TEXT/UTF8
Codec ID/Info : UTF-8 Plain Text
Duration : 1 h 28 min
Bit rate : 34 b/s
Count of elements : 484
Stream size : 22.4 KiB (0%)
Language : German
Default : No
Forced : No





2 个附件 售价 大小 下载 时间

Mon.Mon.Mon.Monsters.2017.CHINESE.1080p.AMZN.WEBRip.DD5.1.x264-NOGRP.torrent 0 金币 19.93K 231 次 4天前

Laputa.1986.FRENCH.1080p.AMZN.WEBRip.DDP2.0.x264-WELP.torrent 0 金币 16.73K 350 次 4天前

#1楼
发帖时间:2022-01-15 09:55:07   |   回复数:0
游客组