travismk
一代宗师

[2018] [其他] [恐怖] [BD-1080P] 逃离Marwin Escape.from.Marwin.2018.1080p.BluRay.x264.DD5.1-HANDJOB 6.59GB

-->

帖子完整标题:逃离Marwin Escape.from.Marwin.2018.1080p.BluRay.x264.DD5.1-HANDJOB 6.59GB



◎译  名 逃离Marwin
◎片  名 Escape from Marwin
◎年  代 2018
◎产  地 西班牙
◎类  别 恐怖
◎语  言 西班牙语
◎上映日期 
◎豆瓣评分 /10 from 0 users
◎豆瓣链接 https://movie.douban.com/subject/34803938/
◎主  演 克里斯蒂安·斯塔姆 Christian Stamm

◎简  介

  In life, we all deserve second chances. It doesn't matter what we have done. What if we were given a second opportunity in the form of an "escape room"? Annually, prisoners sentenced to the death penalty have the option to play this game and be able to get the great prize that they desire, their freedom.

Video
ID : 1
Format : AVC
Format/Info : Advanced Video Codec
Format profile : [email protected]
Format settings : CABAC / 5 Ref Frames
Format settings, CABAC : Yes
Format settings, Reference frames : 5 frames
Codec ID : V_MPEG4/ISO/AVC
Duration : 1 h 42 min
Bit rate : 8 541 kb/s
Width : 1 916 pixels
Height : 816 pixels
Display aspect ratio : 2.35:1
Frame rate mode : Constant
Frame rate : 24.000 FPS
Color space : YUV
Chroma subsampling : 4:2:0
Bit depth : 8 bits
Scan type : Progressive
Bits/(Pixel*Frame) : 0.228
Stream size : 6.12 GiB (93%)
Writing library : x264 core 163 r3060 5db6aa6
Encoding settings : cabac=1 / ref=5 / deblock=1:-3:-3 / analyse=0x3:0x133 / me=umh / subme=10 / psy=1 / psy_rd=1.00:0.00 / mixed_ref=1 / me_range=32 / chroma_me=1 / trellis=2 / 8x8dct=1 / cqm=0 / deadzone=21,11 / fast_pskip=0 / chroma_qp_offset=-2 / threads=9 / lookahead_threads=2 / sliced_threads=0 / nr=0 / decimate=0 / interlaced=0 / bluray_compat=0 / constrained_intra=0 / bframes=16 / b_pyramid=2 / b_adapt=2 / b_bias=0 / direct=3 / weightb=1 / open_gop=0 / weightp=2 / keyint=240 / keyint_min=24 / scenecut=40 / intra_refresh=0 / rc_lookahead=60 / rc=crf / mbtree=0 / crf=14.5 / qcomp=0.60 / qpmin=0 / qpmax=69 / qpstep=4 / vbv_maxrate=62500 / vbv_bufsize=78125 / crf_max=0.0 / nal_hrd=none / filler=0 / ip_ratio=1.40 / pb_ratio=1.30 / aq=2:1.00
Default : Yes
Forced : No
Color range : Limited
Color primaries : BT.709
Transfer characteristics : BT.709
Matrix coefficients : BT.709

Audio
ID : 2
Format : AC-3
Format/Info : Audio Coding 3
Commercial name : Dolby Digital
Codec ID : A_AC3
Duration : 1 h 42 min
Bit rate mode : Constant
Bit rate : 640 kb/s
Channel(s) : 6 channels
Channel layout : L R C LFE Ls Rs
Sampling rate : 48.0 kHz
Frame rate : 31.250 FPS (1536 SPF)
Compression mode : Lossy
Stream size : 470 MiB (7%)
Language : English
Service kind : Complete Main
Default : Yes
Forced : No

Text
ID : 3
Format : PGS
Muxing mode : zlib
Codec ID : S_HDMV/PGS
Codec ID/Info : Picture based subtitle format used on BDs/HD-DVDs
Duration : 1 h 38 min
Bit rate : 27.6 kb/s
Count of elements : 2214
Stream size : 19.5 MiB (0%)
Language : Italian
Default : No
Forced : No

Menu
00:00:00.000 : :Chapter 1
00:15:35.833 : :Chapter 2
00:25:53.167 : :Chapter 3
00:39:02.208 : :Chapter 4
00:53:47.833 : :Chapter 5
01:06:51.208 : :Chapter 6
01:23:38.042 : :Chapter 7
01:39:59.208 : :Chapter 8





1 个附件 售价 大小 下载 时间

Escape.from.Marwin.2018.1080p.BluRay.x264.DD5.1-HANDJOB.torrent 0 金币 17.11K 462 次 4天前

#1楼
发帖时间:2022-01-15 09:09:18   |   回复数:0
游客组