原生系统
一派掌门

[2022] [内地] [真人] [全集] [东南卫视&芒果TV 快乐再出发 全13期 20220705-20220826][1080P/MP4][共约16.2GiB][百度云盘压缩版]

-->


◎片  名 快乐再出发

◎译  名 Go For Happiness

◎年  代 2022

◎产  地 中国大陆

◎类  别 音乐 / 真人秀

◎语  言 汉语普通话

◎上映日期 2022-07-05(中国大陆)

◎IMDb链接 https://www.imdb.com/title

◎豆瓣评分 9.6/10 (235619人评价)

◎豆瓣链接 https://movie.douban.com/subject/35918457

◎集  数 7

◎片  长 87分钟

◎演  员 陈楚生 Chusheng Chen (id:1316875)

       苏醒 Allen Su (id:1318152)

       王栎鑫 Yuexin Wang (id:1322486)

       张远 Yuan Zhang (id:1322495)

       王铮亮 Reno Wang (id:1322493)

       陆虎 Hu Lu (id:1321150)

       俞灏明 Haoming Yu (id:1317315)

       姚政 Zheng Yao (id:1322496)

       谢兴阳 Xingyang Xie (id:1419494)


◎简  介


  《快乐再出发》是由芒果TV和大千影业联合出品的一档音乐旅行真人秀节目,在节目中,陈楚生、陆虎、苏醒、王栎鑫、王铮亮、张远六位哥哥再次集结,合体开启新旅程。他们在旅途中,经历过荒岛求生,体验过海边露营,也在剧组打工客串挣盒饭……有惊喜,有欢笑,更有感动。                                    

       节目组针对快男们对自己团综的策划,结合实际预算“降级”处理, "凑”出一次圆梦之旅。边走边唱成固定项目,快男们将自主设计这迟到的15年的团综,在高度自由向度下,将如何把自己安排的明明白白,这注定是一场充满离谱和意外的爆笑之旅。


General

Complete name               : 0705第1期-0713兄弟荒岛之旅.mp4

Format                      : MPEG-4

Format profile              : Base Media

Codec ID                    : isom (isom/iso2/avc1/mp41)

File size                   : 1.87 GiB

Duration                    : 1 h 27 min

Overall bit rate mode       : Variable

Overall bit rate            : 3 061 kb/s

Movie name                  : 快乐再出发.Go.For.Happiness

Album                       : 国产综艺系列

Performer                   : Vampire制作分享作品

Genre                       : 中国大陆

Recorded date               : 2022

Writing application         : Imgo_transcoder 0.1.20160526

Cover                       : Yes

Comment                     : 警告:严禁将任何作品用于商业性质活动,所有制作作品仅限于测试宽带之用,请于下载后24小时内删除。本人不承担任何法律后果!喜欢本作品请购买正版!!!


Video

ID                          : 1

Format                      : AVC

Format/Info                 : Advanced Video Codec

Format profile              : [email protected]

Format settings             : CABAC / 4 Ref Frames

Format settings, CABAC      : Yes

Format settings, Reference  : 4 frames

Codec ID                    : avc1

Codec ID/Info               : Advanced Video Coding

Duration                    : 1 h 27 min

Bit rate                    : 2 864 kb/s

Width                       : 1 920 pixels

Height                      : 1 080 pixels

Display aspect ratio        : 16:9

Frame rate mode             : Constant

Frame rate                  : 25.000 FPS

Color space                 : YUV

Chroma subsampling          : 4:2:0

Bit depth                   : 8 bits

Scan type                   : Progressive

Bits/(Pixel*Frame)          : 0.055

Stream size                 : 1.75 GiB (94%)

Writing library             : www.mgtv.com codec

Codec configuration box     : avcC


Audio

ID                          : 2

Format                      : AAC LC

Format/Info                 : Advanced Audio Codec Low Complexity

Codec ID                    : mp4a-40-2

Duration                    : 1 h 27 min

Bit rate mode               : Variable

Bit rate                    : 192 kb/s

Maximum bit rate            : 227 kb/s

Channel(s)                  : 2 channels

Channel layout              : L R

Sampling rate               : 44.1 kHz

Frame rate                  : 43.066 FPS (1024 SPF)

Compression mode            : Lossy

Stream size                 : 118 MiB (6%)

Default                     : Yes


本人发布的种子请使用专业BT下载工具:

UT,Bitcomet,qBittorrent,Xdown开启上传后再下载!!!

使用迅雷或网盘离线可能会没速度!!!


视频的网盘资源均修改了视频后缀(如mp4或mkv)修改为.PDF,用以混淆官方视听!
并且加密了文件名,设置了独有的解压密码,请使用WinRAR解压,使用好压或其他可能会出错!!

网盘版所有压缩包下载完毕后解压第一个包即可全部解压(有些可能有解压密码),解压后自行将后缀名“PDF”修改为“mp4或者mkv”后即可正常播放!!!


已完结剧集不再分集打包上传,整体打包后分卷,无法单独下载某一集,需要全部下载后一起解压,敬请知晓!!!
请各位下载的坛友先保存至自己的网盘,然后再进行下载!
不要直接在线观看或者解压,否则会很快被网盘官方发觉并和谐!!

网盘版资源一旦和谐,皆不会免费补档,请谨慎举报资源!!!


请下载完成的朋友自觉做种一段时间,小水管出种不易,且下且珍惜,谢谢!!!


百度云盘:https://pan.baidu.com/s/1fZEwfvWaAc_8N_oy3N2pog

提取密码:GXFC

#1楼
发帖时间:2022-10-13 22:45:33   |   回复数:0
游客组