BILL36
隐世仙人♂

[2024] [大陆] [动画] [WEB-4K] 百妖谱·司府篇[第02集][国语配音/中文字幕].Fairies.Album.S04.2024.2160p.WEB-DL.H264.AAC-ZeroTV 1.0

-->

完整标题:百妖谱·司府篇[第02集][国语配音/中文字幕].Fairies.Album.S04.2024.2160p.WEB-DL.H264.AAC-ZeroTV 1.02GB



◎标  题 百妖谱·司府篇
◎年  代 2024
◎产  地 中国大陆
◎类  别 动画
◎语  言 汉语普通话
◎IMDb链接 https://www.imdb.com/title//
◎豆瓣链接 https://movie.douban.com/subject/36140200/
◎演  员 赵双 Shuang Zhao
      皇贞季 Zhen Wang
      藤新 Xin Teng
      曹云图 Yuntu Cao
      常蓉珊 Rongshan Chang

◎简  介
    《百妖谱》第四季动画故事讲述,桃天带着小和尚磨牙、小狐妖滚滚和   桃都老邻居柳公子一起继续为了寻找失踪的百妖谱而云游四方,   在途中遇到暗刀、百知、风果、孰湖、枫生、趸鱼六个妖怪,为妖怪治疗各种疑难杂症的故事。

部分资源为软字幕,移动端推荐播放器:MxPlayer,nPlayer,infuse ,其他播放器请自行尝试。

部分资源为软字幕,电脑端推荐播放器:PotPlayer,完美解码,KMPLAYER,其他播放器请自行尝试。

##### MediaInfo ######
General
Complete name : 百妖谱.Fairies.Album.S04E02.2024.2160p.WEB-DL.H264.AAC-ZeroTV.mp4
Duration : 23 min 45 s
Overall bit rate : 6 141 kb/s

Video
ID : 1
Format : AVC
Format/Info : Advanced Video Codec
Format profile : [email protected]
Format settings : CABAC / 5 Ref Frames
Format settings, CABAC : Yes
Format settings, Reference frames : 5 frames
Codec ID : avc1
Codec ID/Info : Advanced Video Coding
Duration : 23 min 44 s
Bit rate : 5 944 kb/s
Width : 3 840 pixels
Height : 2 160 pixels
Display aspect ratio : 16:9
Frame rate mode : Variable
Frame rate : 24.000 FPS
Minimum frame rate : 23.810 FPS
Maximum frame rate : 24.390 FPS
Color space : YUV
Chroma subsampling : 4:2:0
Bit depth : 8 bits
Scan type : Progressive
Bits/(Pixel*Frame) : 0.030
Stream size : 1 010 MiB (97%)
Color range : Limited
Color primaries : BT.709
Transfer characteristics : BT.709
Matrix coefficients : BT.709
Codec configuration box : avcC

Audio
ID : 2
Format : AAC LC
Format/Info : Advanced Audio Codec Low Complexity
Codec ID : mp4a-40-2
Duration : 23 min 45 s
Bit rate mode : Constant
Bit rate : 192 kb/s
Channel(s) : 2 channels
Channel layout : L R
Sampling rate : 48.0 kHz
Frame rate : 46.875 FPS (1024 SPF)
Compression mode : Lossy
Stream size : 32.3 MiB (3%)
Language : Chinese
Default : Yes
Alternate group : 1


点击图片可查看大图

软字幕无法在截图上展现,HDR版本/杜比视界版本截图会出现颜色异常,请使用支持的设备播放!



1 个附件 售价 大小 下载 时间

Fairies.Album.S04.2024.2160p.WEB-DL.H264.AAC-ZeroTV[1LOU.ME].torrent 0 金币 5.50K 574 次 1月前

#1楼
发帖时间:2024-02-23 20:35:01   |   回复数:1
性感女神_aim
小有名气
1
1月前 #2楼
游客组