topgood
武林盟主

[2022] [美国] [喜剧] [BD-4K] 迷失之城 The.Lost.City.2022.2160p.WEB-DL.x265.10bit.SDR.DDP5.1.Atmos-DEFLATE 16.63GB

-->

帖子完整标题:迷失之城 The.Lost.City.2022.2160p.WEB-DL.x265.10bit.SDR.DDP5.1.Atmos-DEFLATE 16.63GB



◎译  名 迷失之城 / 迷失D城 / Lost City of D / 失惊无神闯谜城(港) / 失落谜城(台)
◎片  名 The Lost City
◎年  代 2022
◎产  地 美国
◎类  别 喜剧 / 动作 / 冒险
◎语  言 英语
◎上映日期 2022-03-25(美国)
◎IMDb链接 https://www.imdb.com/title/tt13320622/
◎豆瓣评分 6.1/10 (774人评价)
◎豆瓣链接 https://movie.douban.com/subject/35303842/
◎片  长 112分钟
◎导  演 艾伦·尼 Aaron Nee (id:1309156)
      亚当·尼 Adam Nee (id:1010038)
◎编  剧 奥伦·尤济尔 Oren Uziel (id:1341155)
      达纳·福克斯 Dana Fox (id:1354750)
      亚当·尼 Adam Nee (id:1010038)
      艾伦·尼 Aaron Nee (id:1309156)
      赛斯·戈登 Seth Gordon (id:1245192)
◎演  员 桑德拉·布洛克 Sandra Bullock (id:1022003)
      查宁·塔图姆 Channing Tatum (id:1031224)
      丹尼尔·雷德克里夫 Daniel Radcliffe (id:1003484)
      达明·乔伊·伦道夫 Da'Vine Joy Randolph (id:1365682)
      布拉德·皮特 Brad Pitt (id:1054452)
      奥斯卡·努内斯 Oscar Nu?ez (id:1180655)
      帕蒂·哈里森 Patti Harrison (id:1450627)
      杨伯文 Bowen Yang (id:1424698)
      乔安·普林格尔 Joan Pringle (id:1135464)
      赫克托·阿尼巴尔 Héctor Aníbal (id:1469366)
      托马斯·福布斯·约翰逊 Thomas Forbes-Johnson (id:1469367)
      斯莱·刘易斯 Sli Lewis (id:1469368)
      亚当·尼 Adam Nee (id:1010038)
      雷蒙德·李 Raymond Lee (id:1363747)
      安东尼·阿尔瓦雷斯 Anthony Alvarez (id:1056415)
      马西·哈罗 Marcy Jarreau (id:1460795)
      瑞恩·贾德 Ryan Judd (id:1343709)
      莉莎·蔡辛 Liza Chasin (id:1465557)
      桑德拉·布洛克 Sandra Bullock (id:1022003)
      赛斯·戈登 Seth Gordon (id:1245192)
      玛琳·斯图尔特 Marlene Stewart (id:1051194)

◎简  介
  洛蕾塔·塞琪(桑德拉·布洛克 饰)是一位才华横溢但与世隔绝的作家。在她的畅销爱情冒险小说里,总会出现许多奇异的地方。而作为本书的封面模特,艾伦(查宁·塔图姆 饰)一生都在致力于展现书中英雄角色“达什”的个人魅力。 ” 在与艾伦一起宣传新书时,洛雷塔被一位古怪的亿万富翁(丹尼尔·雷德克里夫 饰)绑架。这位亿万富翁坚信,洛蕾塔的新书能带领他找到失落古城中的宝藏。 与此同时,艾伦为了证明自己可以成为现实中的英雄,而不仅仅是洛蕾塔虚构的人物,决定前去营救她。这对极不对付的搭档需要共同努力,才能在险恶的丛林中生存下来,并在亿万富翁赶到前找到古老的宝藏。

Video
ID : 5
Format : HEVC
Format/Info : High Efficiency Video Coding
Format profile : Main [email protected]@High
Codec ID : V_MPEGH/ISO/HEVC
Duration : 1 h 51 min
Bit rate : 20.1 Mb/s
Width : 3 840 pixels
Height : 1 608 pixels
Display aspect ratio : 2.40:1
Frame rate mode : Constant
Frame rate : 23.976 (24000/1001/189150) FPS
Color space : YUV
Chroma subsampling : 4:2:0
Bit depth : 10 bits
Bits/(Pixel*Frame) : 0.136
Stream size : 15.7 GiB (94%)
Language : English
Default : Yes
Forced : No
Color range : Limited
Color primaries : BT.709
Transfer characteristics : BT.709
Matrix coefficients : BT.709

Audio
ID : 6
Format : E-AC-3 JOC
Format/Info : Enhanced AC-3 with Joint Object Coding
Commercial name : Dolby Digital Plus with Dolby Atmos
Codec ID : A_EAC3
Duration : 1 h 51 min
Bit rate mode : Constant
Bit rate : 768 kb/s
Channel(s) : 6 channels
Channel layout : L R C LFE Ls Rs
Sampling rate : 48.0 kHz
Frame rate : 31.250 FPS (1536 SPF)
Compression mode : Lossy
Stream size : 614 MiB (4%)
Language : English
Service kind : Complete Main
Default : Yes
Forced : No
Complexity index : 16
Number of dynamic objects : 15
Bed channel count : 1 channel
Bed channel configuration : LFE

Text #1
ID : 4
Format : UTF-8
Codec ID : S_TEXT/UTF8
Codec ID/Info : UTF-8 Plain Text
Title : English
Language : English
Default : No
Forced : No

Text #2
ID : 7
Format : UTF-8
Codec ID : S_TEXT/UTF8
Codec ID/Info : UTF-8 Plain Text
Title : English (SDH)
Language : English
Default : No
Forced : No

Menu
00:00:00.000 : en:Opening Credits
00:00:40.000 : en:Scene 2
00:10:12.000 : en:Scene 3
00:19:32.000 : en:Scene 4
00:28:55.000 : en:Scene 5
00:38:20.000 : en:Scene 6
00:46:59.000 : en:Scene 7
00:55:09.000 : en:Scene 8
01:02:20.000 : en:Scene 9
01:10:22.000 : en:Scene 10
01:18:43.000 : en:Scene 11
01:28:43.000 : en:Scene 12
01:33:36.000 : en:Scene 13
01:38:32.000 : en:Scene 14
01:43:45.000 : en:End Credits





1 个附件 售价 大小 下载 时间

The.Lost.City.2022.2160p.WEB-DL.x265.10bit.SDR.DDP5.1.Atmos-DEFLATE.torrent 0 金币 21.50K 2492 次 1月前

#1楼
发帖时间:2022-05-22 17:49:16   |   回复数:0
游客组