fg603603
一代宗师

[2022] [美国] [喜剧] [BD-4K] 替身演员 The.Valet.2022.2160p.DSNP.WEB-DL.DDP5.1.DV.MKV.x265-SMURF 14.31GB

-->

帖子完整标题:替身演员 The.Valet.2022.2160p.DSNP.WEB-DL.DDP5.1.DV.MKV.x265-SMURF 14.31GB



◎译  名 替身演员 / 替身演员 美国版 / 替身 / 幕前情人
◎片  名 The Valet
◎年  代 2022
◎产  地 美国
◎类  别 喜剧 / 爱情
◎语  言 英语
◎上映日期 2022-05-20(美国网络)
◎IMDb链接 https://www.imdb.com/title/tt4081630/
◎豆瓣链接 https://movie.douban.com/subject/35411552/
◎导  演 黄世宁 Richard Wong (id:1307021)
◎编  剧 鲍勃·费希尔 Bob Fisher (id:1332325)
      罗布·格林伯格 Rob Greenberg (id:1392364)
      弗朗西斯·韦贝尔 Francis Veber (id:1025358)
◎演  员 欧赫尼奥·德尔维斯 Eugenio Derbez (id:1050224)
      萨玛拉·维文 Samara Weaving (id:1267671)
      马克思·格林菲尔德 Max Greenfield (id:1316951)
      贝琪·勃兰特 Betsy Brandt (id:1321830)
      卡门·萨丽娜斯 Carmen Salinas (id:1146968)
      阿莫里·诺拉斯科 Amaury Nolasco (id:1013860)
      阿曼多·汤姆森 Armando Hernández (id:1286493)
      马利索·妮可 Marisol Nichols (id:1040540)
      约翰·皮鲁切洛 John Pirruccello (id:1365375)
      拉维·帕特尔 Ravi Patel (id:1036902)
      阿莱克斯·费尔南德斯 Alex Fernandez (id:1084371)
      诺埃米·冈萨雷斯 Noemi Gonzalez (id:1407350)
      米丽娜·里韦罗 Milena Rivero (id:1441323)
      克里斯·加恩 Chris Gann (id:1000893)
      威尔莫·卡德隆 Wilmer Calderon (id:1045385)
      薇薇安娜·查维斯 Viviana Chavez (id:1376696)
      迈克·巴什 Mike Bash (id:1186501)
      金永 Yong Kim (id:1387299)

◎简  介
  该片改编自2006年法国电影[替身演员],维文将饰演一位电影明星,她请了一位名叫安东尼奥(德尔维斯饰)的泊车员冒充她的情人,以掩饰自己与一个已婚男子的关系。作为一名拉丁男仆,努力工作的安东尼奥过着几乎毫无身份的生活,但通过这件事,他开始得到大家的尊重。

Video
ID : 1
Format : HEVC
Format/Info : High Efficiency Video Coding
Format profile : Main [email protected]@High
HDR format : Dolby Vision, Version 1.0, dvhe.05.06, BL+RPU
Codec ID : V_MPEGH/ISO/HEVC
Duration : 2 h 2 min
Bit rate : 16.4 Mb/s
Width : 3 840 pixels
Height : 2 160 pixels
Display aspect ratio : 16:9
Frame rate mode : Constant
Frame rate : 23.976 (24000/1001/189150) FPS
Color space : YUV
Chroma subsampling : 4:2:0
Bit depth : 10 bits
Bits/(Pixel*Frame) : 0.083
Stream size : 14.1 GiB (98%)
Default : Yes
Forced : No
Color range : Full

Audio
ID : 2
Format : E-AC-3
Format/Info : Enhanced AC-3
Commercial name : Dolby Digital Plus
Codec ID : A_EAC3
Duration : 2 h 2 min
Bit rate mode : Constant
Bit rate : 256 kb/s
Channel(s) : 6 channels
Channel layout : L R C LFE Ls Rs
Sampling rate : 48.0 kHz
Frame rate : 31.250 FPS (1536 SPF)
Compression mode : Lossy
Stream size : 225 MiB (2%)
Language : English
Service kind : Complete Main
Default : Yes
Forced : No

Text #1
ID : 3
Format : UTF-8
Codec ID : S_TEXT/UTF8
Codec ID/Info : UTF-8 Plain Text
Duration : 1 h 55 min
Bit rate : 79 b/s
Count of elements : 1954
Stream size : 67.5 KiB (0%)
Language : English
Default : No
Forced : No

Text #2
ID : 4
Format : UTF-8
Codec ID : S_TEXT/UTF8
Codec ID/Info : UTF-8 Plain Text
Duration : 2 h 2 min
Bit rate : 86 b/s
Count of elements : 2195
Stream size : 77.1 KiB (0%)
Title : SDH
Language : English
Default : No
Forced : No

Text #3
ID : 5
Format : UTF-8
Codec ID : S_TEXT/UTF8
Codec ID/Info : UTF-8 Plain Text
Duration : 2 h 1 min
Bit rate : 62 b/s
Count of elements : 1776
Stream size : 56.0 KiB (0%)
Language : Czech
Default : No
Forced : No

Text #4
ID : 6
Format : UTF-8
Codec ID : S_TEXT/UTF8
Codec ID/Info : UTF-8 Plain Text
Duration : 2 h 1 min
Bit rate : 66 b/s
Count of elements : 1553
Stream size : 58.9 KiB (0%)
Language : Danish
Default : No
Forced : No

Text #5
ID : 7
Format : UTF-8
Codec ID : S_TEXT/UTF8
Codec ID/Info : UTF-8 Plain Text
Duration : 2 h 1 min
Bit rate : 69 b/s
Count of elements : 1778
Stream size : 61.9 KiB (0%)
Language : German
Default : No
Forced : No

Text #6
ID : 8
Format : UTF-8
Codec ID : S_TEXT/UTF8
Codec ID/Info : UTF-8 Plain Text
Duration : 2 h 1 min
Bit rate : 114 b/s
Count of elements : 1885
Stream size : 102 KiB (0%)
Language : Greek
Default : No
Forced : No

Text #7
ID : 9
Format : UTF-8
Codec ID : S_TEXT/UTF8
Codec ID/Info : UTF-8 Plain Text
Duration : 2 h 1 min
Bit rate : 53 b/s
Count of elements : 1561
Stream size : 47.8 KiB (0%)
Title : Latin American
Language : Spanish
Default : No
Forced : No

Text #8
ID : 10
Format : UTF-8
Codec ID : S_TEXT/UTF8
Codec ID/Info : UTF-8 Plain Text
Duration : 2 h 1 min
Bit rate : 52 b/s
Count of elements : 1562
Stream size : 47.1 KiB (0%)
Language : Spanish
Default : No
Forced : No

Text #9
ID : 11
Format : UTF-8
Codec ID : S_TEXT/UTF8
Codec ID/Info : UTF-8 Plain Text
Duration : 2 h 1 min
Bit rate : 59 b/s
Count of elements : 1724
Stream size : 52.7 KiB (0%)
Language : Finnish
Default : No
Forced : No

Text #10
ID : 12
Format : UTF-8
Codec ID : S_TEXT/UTF8
Codec ID/Info : UTF-8 Plain Text
Duration : 2 h 1 min
Bit rate : 69 b/s
Count of elements : 1917
Stream size : 61.9 KiB (0%)
Language : French
Default : No
Forced : No

Text #11
ID : 13
Format : UTF-8
Codec ID : S_TEXT/UTF8
Codec ID/Info : UTF-8 Plain Text
Duration : 2 h 1 min
Bit rate : 55 b/s
Count of elements : 1768
Stream size : 49.7 KiB (0%)
Language : Italian
Default : No
Forced : No

Text #12
ID : 14
Format : UTF-8
Codec ID : S_TEXT/UTF8
Codec ID/Info : UTF-8 Plain Text
Duration : 2 h 1 min
Bit rate : 57 b/s
Count of elements : 1877
Stream size : 51.5 KiB (0%)
Language : Japanese
Default : No
Forced : No

Text #13
ID : 15
Format : UTF-8
Codec ID : S_TEXT/UTF8
Codec ID/Info : UTF-8 Plain Text
Duration : 2 h 1 min
Bit rate : 79 b/s
Count of elements : 1929
Stream size : 70.6 KiB (0%)
Language : Korean
Default : No
Forced : No

Text #14
ID : 16
Format : UTF-8
Codec ID : S_TEXT/UTF8
Codec ID/Info : UTF-8 Plain Text
Duration : 2 h 1 min
Bit rate : 59 b/s
Count of elements : 1647
Stream size : 53.3 KiB (0%)
Language : Dutch
Default : No
Forced : No

Text #15
ID : 17
Format : UTF-8
Codec ID : S_TEXT/UTF8
Codec ID/Info : UTF-8 Plain Text
Duration : 2 h 1 min
Bit rate : 65 b/s
Count of elements : 1827
Stream size : 58.4 KiB (0%)
Language : Norwegian
Default : No
Forced : No

Text #16
ID : 18
Format : UTF-8
Codec ID : S_TEXT/UTF8
Codec ID/Info : UTF-8 Plain Text
Duration : 2 h 1 min
Bit rate : 64 b/s
Count of elements : 1895
Stream size : 57.7 KiB (0%)
Language : Polish
Default : No
Forced : No

Text #17
ID : 19
Format : UTF-8
Codec ID : S_TEXT/UTF8
Codec ID/Info : UTF-8 Plain Text
Duration : 2 h 1 min
Bit rate : 63 b/s
Count of elements : 1878
Stream size : 56.9 KiB (0%)
Title : Brazilian
Language : Portuguese
Default : No
Forced : No

Text #18
ID : 20
Format : UTF-8
Codec ID : S_TEXT/UTF8
Codec ID/Info : UTF-8 Plain Text
Duration : 2 h 1 min
Bit rate : 65 b/s
Count of elements : 1911
Stream size : 58.5 KiB (0%)
Language : Portuguese
Default : No
Forced : No

Text #19
ID : 21
Format : UTF-8
Codec ID : S_TEXT/UTF8
Codec ID/Info : UTF-8 Plain Text
Duration : 2 h 1 min
Bit rate : 62 b/s
Count of elements : 1505
Stream size : 55.8 KiB (0%)
Language : Romanian
Default : No
Forced : No

Text #20
ID : 22
Format : UTF-8
Codec ID : S_TEXT/UTF8
Codec ID/Info : UTF-8 Plain Text
Duration : 2 h 1 min
Bit rate : 65 b/s
Count of elements : 1912
Stream size : 58.6 KiB (0%)
Language : Slovak
Default : No
Forced : No

Text #21
ID : 23
Format : UTF-8
Codec ID : S_TEXT/UTF8
Codec ID/Info : UTF-8 Plain Text
Duration : 2 h 1 min
Bit rate : 64 b/s
Count of elements : 1924
Stream size : 57.7 KiB (0%)
Language : Swedish
Default : No
Forced : No

Text #22
ID : 24
Format : UTF-8
Codec ID : S_TEXT/UTF8
Codec ID/Info : UTF-8 Plain Text
Duration : 2 h 1 min
Bit rate : 64 b/s
Count of elements : 1704
Stream size : 57.4 KiB (0%)
Language : Turkish
Default : No
Forced : No

Text #23
ID : 25
Format : UTF-8
Codec ID : S_TEXT/UTF8
Codec ID/Info : UTF-8 Plain Text
Duration : 2 h 1 min
Bit rate : 65 b/s
Count of elements : 1950
Stream size : 58.5 KiB (0%)
Title : Simplified
Language : Chinese
Default : No
Forced : No

Text #24
ID : 26
Format : UTF-8
Codec ID : S_TEXT/UTF8
Codec ID/Info : UTF-8 Plain Text
Duration : 2 h 1 min
Bit rate : 69 b/s
Count of elements : 1949
Stream size : 61.8 KiB (0%)
Title : Traditional
Language : Chinese
Default : No
Forced : No

Menu
01:50:54.530 : en:Credits





1 个附件 售价 大小 下载 时间

The.Valet.2022.2160p.DSNP.WEB-DL.DDP5.1.DV.MKV.x265-SMURF.torrent 0 金币 18.52K 791 次 1月前

#1楼
发帖时间:2022-05-20 20:28:09   |   回复数:0
游客组