travismk
一代宗师

[更 早] [其他] [剧情] [BD-720P] 高度戒備 Full.Alert.1997.720p.BluRay.x264-USURY 7.91GB

-->

帖子完整标题:高度戒備 Full.Alert.1997.720p.BluRay.x264-USURY 7.91GB



◎译  名 高度戒备/Full Alert
◎片  名 高度戒備
◎年  代 1997
◎产  地 中国香港
◎类  别 剧情 / 动作
◎语  言 粤语
◎上映日期 1997-07-18(中国香港)
◎豆瓣评分 7.1/10 from 9621 users
◎豆瓣链接 https://movie.douban.com/subject/1298492/
◎片  长 98分钟
◎导  演 林岭东 Ringo Lam
◎编  剧 林岭东 Ringo Lam / 刘永健 Sammy Lau Wing-Kin
◎主  演 刘青云 Sean Lau
      吴镇宇 Francis Ng
      高捷 Jack Kao
      李蕙敏 Amanda Lee
      陈法蓉 Monica Chan
      钱嘉乐 Kar Lok Chin
      曹永廉 Wing Lim Cho
      关宝慧 Emily Kwan
      金扬桦 Yeung-Wah Kam
      容锦昌 Kam-Cheong Yung
      李兆基 Siu-Kei Lee
      吴志雄 Chi Hung Ng
      罗树琪 Shu-Kei Law
      霍永富 Marcus Fox
      王章宝 Cheung-Bo Wong

◎标  签 吴镇宇 | 刘青云 | 香港 | 林岭东 | 香港电影 | 警匪 | 犯罪 | 动作

◎简  介

  重案组高级警察包伟雄(刘青云饰)因开枪打死人陷入深深的负罪感之中。前土木工程师麦坤(吴镇宇饰)因赌马失败失去一切,放手一搏准备其惊天大案。但不想一开始就因为杀人嫌疑被包伟雄关进大牢。本以为案件就此结束,麦坤的同伙竟公然在运送麦坤的途中截车救人!
  
  案情突然变得复杂,麦坤家中藏有大量炸药原料,包伟雄推断麦坤要抢劫金库。但香港金库之多,麦坤的目标到底是哪里?时间一分一秒的过去,陷入窘境的包伟雄,走投无路的麦坤,谁将在今夜成功达成自己的目标?

◎获奖情况

  第17届香港电影金像奖 ?(1998)
  最佳电影(提名) 林岭东
  最佳导演(提名) 林岭东
  最佳男主角(提名) 刘青云
  最佳剪接(提名) 林安儿?/?麦子善
  最佳音响效果(提名)

Video
ID : 1
Format : AVC
Format/Info : Advanced Video Codec
Format profile : [email protected]
Format settings : CABAC / 9 Ref Frames
Format settings, CABAC : Yes
Format settings, Reference frames : 9 frames
Codec ID : V_MPEG4/ISO/AVC
Duration : 1 h 39 min
Bit rate : 9 821 kb/s
Width : 1 280 pixels
Height : 694 pixels
Display aspect ratio : 1.85:1
Frame rate mode : Constant
Frame rate : 23.976 (24000/1001/189150) FPS
Color space : YUV
Chroma subsampling : 4:2:0
Bit depth : 8 bits
Scan type : Progressive
Bits/(Pixel*Frame) : 0.461
Stream size : 6.80 GiB (86%)
Writing library : x264 core 164 r3075 66a5bc1
Encoding settings : cabac=1 / ref=9 / deblock=1:-3:-3 / analyse=0x3:0x133 / me=umh / subme=10 / psy=1 / psy_rd=1.00:0.15 / mixed_ref=1 / me_range=24 / chroma_me=1 / trellis=2 / 8x8dct=1 / cqm=0 / deadzone=21,11 / fast_pskip=1 / chroma_qp_offset=-3 / threads=18 / lookahead_threads=3 / sliced_threads=0 / nr=0 / decimate=1 / interlaced=0 / bluray_compat=0 / constrained_intra=0 / bframes=8 / b_pyramid=2 / b_adapt=2 / b_bias=0 / direct=3 / weightb=1 / open_gop=0 / weightp=2 / keyint=250 / keyint_min=23 / scenecut=40 / intra_refresh=0 / rc_lookahead=60 / rc=crf / mbtree=1 / crf=21.5 / qcomp=0.60 / qpmin=0 / qpmax=69 / qpstep=4 / ip_ratio=1.40 / aq=3:0.50
Language : English
Default : Yes
Forced : No
Color range : Limited
Matrix coefficients : BT.709

Audio #1
ID : 2
Format : FLAC
Format/Info : Free Lossless Audio Codec
Codec ID : A_FLAC
Duration : 1 h 39 min
Bit rate mode : Variable
Bit rate : 1 363 kb/s
Channel(s) : 2 channels
Channel layout : L R
Sampling rate : 48.0 kHz
Frame rate : 11.719 FPS (4096 SPF)
Bit depth : 24 bits
Compression mode : Lossless
Stream size : 966 MiB (12%)
Title : Cantonese
Writing library : libFLAC 1.2.1 (UTC 2007-09-17)
Language : Chinese
Default : Yes
Forced : No

Audio #2
ID : 3
Format : AAC LC
Format/Info : Advanced Audio Codec Low Complexity
Codec ID : A_AAC-2
Duration : 1 h 39 min
Bit rate : 110 kb/s
Channel(s) : 2 channels
Channel layout : L R
Sampling rate : 48.0 kHz
Frame rate : 46.875 FPS (1024 SPF)
Compression mode : Lossy
Delay relative to video : 9 ms
Stream size : 77.8 MiB (1%)
Title : English Commentary by Frank Djeng
Language : English
Default : No
Forced : No

Audio #3
ID : 4
Format : AAC LC
Format/Info : Advanced Audio Codec Low Complexity
Codec ID : A_AAC-2
Duration : 1 h 39 min
Bit rate : 96.0 kb/s
Channel(s) : 2 channels
Channel layout : L R
Sampling rate : 48.0 kHz
Frame rate : 46.875 FPS (1024 SPF)
Compression mode : Lossy
Delay relative to video : 9 ms
Stream size : 67.8 MiB (1%)
Title : Cantonese Commentary by Ringo Lam
Language : Chinese
Default : No
Forced : No

Text #1
ID : 5
Format : UTF-8
Codec ID : S_TEXT/UTF8
Codec ID/Info : UTF-8 Plain Text
Duration : 1 h 36 min
Bit rate : 39 b/s
Count of elements : 955
Stream size : 27.5 KiB (0%)
Title : English
Language : English
Default : Yes
Forced : Yes

Text #2
ID : 6
Format : PGS
Muxing mode : zlib
Codec ID : S_HDMV/PGS
Codec ID/Info : Picture based subtitle format used on BDs/HD-DVDs
Duration : 1 h 36 min
Bit rate : 12.1 kb/s
Count of elements : 1797
Stream size : 8.31 MiB (0%)
Title : English
Language : English
Default : No
Forced : No

Text #3
ID : 7
Format : UTF-8
Codec ID : S_TEXT/UTF8
Codec ID/Info : UTF-8 Plain Text
Duration : 1 h 36 min
Bit rate : 50 b/s
Count of elements : 1058
Stream size : 35.8 KiB (0%)
Title : English Commentary by Ringo Lam
Language : English
Default : No
Forced : No

Text #4
ID : 8
Format : PGS
Muxing mode : zlib
Codec ID : S_HDMV/PGS
Codec ID/Info : Picture based subtitle format used on BDs/HD-DVDs
Duration : 1 h 36 min
Bit rate : 15.4 kb/s
Count of elements : 1881
Stream size : 10.6 MiB (0%)
Title : English Commentary by Ringo Lam
Language : English
Default : No
Forced : No

Menu
00:00:00.000 : en:00:00:00.000
00:08:41.062 : en:00:08:41.062
00:20:38.362 : en:00:20:38.362
00:28:58.612 : en:00:28:58.612
00:40:33.640 : en:00:40:33.640
00:50:29.652 : en:00:50:29.652
01:00:15.195 : en:01:00:15.195
01:10:15.336 : en:01:10:15.336
01:19:36.647 : en:01:19:36.647
01:31:37.075 : en:01:31:37.075





1 个附件 售价 大小 下载 时间

Full.Alert.1997.720p.BluRay.x264-USURY.torrent 0 金币 20.47K 1085 次 1月前

#1楼
发帖时间:2021-11-28 21:34:07   |   回复数:2
popeye69
一派掌门
谢谢楼主分享。
1月前 #2楼
jokingcheung
一代宗师
谢谢分享
1月前 #3楼
游客组