fg603603
一代宗师

[更 早] [欧美] [动作] [BD-1080P] 警察局/正义陷落 Copshop.2021.1080p.BluRay.x264.DTS-MT 12.94GB

-->

帖子完整标题:警察局/正义陷落 Copshop.2021.1080p.BluRay.x264.DTS-MT 12.94GB



◎译  名 警察局/正义陷落/高玩殺手
◎片  名 Copshop
◎年  代 2021
◎产  地 美国
◎类  别 动作 / 惊悚
◎语  言 英语
◎上映日期 2021-09-17(美国)
◎豆瓣评分 6.2/10 from 507 users
◎豆瓣链接 https://movie.douban.com/subject/35197314/
◎片  长 108分钟
◎导  演 乔·卡纳汉 Joe Carnahan
◎编  剧 乔·卡纳汉 Joe Carnahan / 马克·威廉姆斯 Mark Williams / 科特·麦克劳德 Kurt McLeod
◎主  演 弗兰克·格里罗 Frank Grillo
      杰拉德·巴特勒 Gerard Butler
      托比·哈斯 Toby Huss
      亚历克西斯·拉奥特 Alexis Louder
      泰特·弗莱彻 Tait Fletcher
      瑞恩·欧南 Ryan O'Nan
      何塞·巴勃罗·坎蒂略 Jose Pablo Cantillo
      基思·雅各 Keith Jardine
      大卫·沃恩 David Vaughn
      凯维·莱曼-默塞尤 Kaiwi Lyman-Mersereau
      马歇尔·库克 Marshall Cook
      克里斯托弗·迈克尔·霍利 Christopher Michael Holley
      罗伯特·沃克·布兰乔德 Robert Walker Branchaud
      特雷西·邦纳 Tracey Bonner

◎标  签 动作 | 犯罪 | 美国 | 2021 | 惊悚 | 黑色幽默 | 美国电影 | 剧情

◎简  介

  讲述一个小镇警察局成为三个人之间不可思议的战场——职业杀手、聪明的新手女警、除了酒吧找不到其他避难所的诈骗犯。

Video
ID : 1
Format : AVC
Format/Info : Advanced Video Codec
Format profile : [email protected]
Format settings : CABAC / 5 Ref Frames
Format settings, CABAC : Yes
Format settings, Reference frames : 5 frames
Codec ID : V_MPEG4/ISO/AVC
Duration : 1 h 47 min
Bit rate : 15.7 Mb/s
Width : 1 920 pixels
Height : 802 pixels
Display aspect ratio : 2.40:1
Frame rate mode : Constant
Frame rate : 23.976 (24000/1001/189150) FPS
Color space : YUV
Chroma subsampling : 4:2:0
Bit depth : 8 bits
Scan type : Progressive
Bits/(Pixel*Frame) : 0.425
Stream size : 11.8 GiB (91%)
Writing library : x264 core 157 r2938 2b00a84 [email protected] Mod
Encoding settings : cabac=1 / ref=5 / deblock=1:-3:-3 / analyse=0x3:0x133 / me=umh / subme=10 / psy=1 / psy_rd=1.05:0.00 / mixed_ref=1 / me_range=32 / chroma_me=1 / trellis=2 / 8x8dct=1 / cqm=0 / deadzone=21,11 / fast_pskip=0 / chroma_qp_offset=-2 / threads=12 / lookahead_threads=2 / sliced_threads=0 / nr=0 / decimate=0 / interlaced=0 / bluray_compat=0 / constrained_intra=0 / bframes=8 / b_pyramid=2 / b_adapt=2 / b_bias=0 / direct=3 / weightb=1 / open_gop=0 / weightp=2 / keyint=250 / keyint_min=24 / scenecut=40 / intra_refresh=0 / rc_lookahead=250 / rc=crf / mbtree=0 / crf=16.8 / qcomp=0.60 / qpmin=0 / qpmax=69 / qpstep=4 / vbv_maxrate=62500 / vbv_bufsize=78125 / crf_max=0.0 / nal_hrd=none / filler=0 / ip_ratio=1.30 / pb_ratio=1.20 / aq=3:0.80
Language : English
Default : Yes
Forced : No
Color range : Limited
Color primaries : BT.709
Matrix coefficients : BT.709

Audio
ID : 2
Format : DTS
Format/Info : Digital Theater Systems
Codec ID : A_DTS
Duration : 1 h 47 min
Bit rate mode : Constant
Bit rate : 1 509 kb/s
Channel(s) : 6 channels
Channel layout : C L R Ls Rs LFE
Sampling rate : 48.0 kHz
Frame rate : 93.750 FPS (512 SPF)
Bit depth : 24 bits
Compression mode : Lossy
Stream size : 1.13 GiB (9%)
Language : English
Default : Yes
Forced : No

Text #1
ID : 3
Format : UTF-8
Codec ID : S_TEXT/UTF8
Codec ID/Info : UTF-8 Plain Text
Duration : 1 h 41 min
Bit rate : 59 b/s
Count of elements : 1392
Stream size : 44.4 KiB (0%)
Language : English
Default : Yes
Forced : No

Text #2
ID : 4
Format : UTF-8
Codec ID : S_TEXT/UTF8
Codec ID/Info : UTF-8 Plain Text
Duration : 1 h 42 min
Bit rate : 62 b/s
Count of elements : 1559
Stream size : 47.2 KiB (0%)
Title : SDH
Language : English
Default : No
Forced : No

Menu
00:00:00.000 : en:Chapter 01
00:04:49.289 : en:Chapter 02
00:13:26.597 : en:Chapter 03
00:19:17.448 : en:Chapter 04
00:23:28.949 : en:Chapter 05
00:27:46.748 : en:Chapter 06
00:31:51.576 : en:Chapter 07
00:37:10.728 : en:Chapter 08
00:44:32.712 : en:Chapter 09
00:49:33.512 : en:Chapter 10
00:54:48.619 : en:Chapter 11
00:59:39.576 : en:Chapter 12
01:05:41.479 : en:Chapter 13
01:10:07.829 : en:Chapter 14
01:13:57.808 : en:Chapter 15
01:21:08.072 : en:Chapter 16
01:26:25.472 : en:Chapter 17
01:35:55.041 : en:Chapter 18
01:40:25.394 : en:Chapter 19
01:43:02.676 : en:Chapter 20





1 个附件 售价 大小 下载 时间

Copshop.2021.1080p.BluRay.x264.DTS-MT.torrent 0 金币 16.78K 3108 次 1月前

#1楼
发帖时间:2021-11-28 20:57:08   |   回复数:3
liyouchai
隐世仙人♂
谢谢楼主分享资源
1月前 #2楼
popeye69
一派掌门
谢谢楼主分享。
1月前 #3楼
show55667878
武林高手
感謝分享藍光版本
1月前 #4楼
游客组