fg603603
一代宗师

[更 早] [其他] [剧情] [BD-1080P] 事物的状态 The.State.of.Things.1982.1080p.BluRay.x264-USURY 19.01GB

-->

帖子完整标题:事物的状态 The.State.of.Things.1982.1080p.BluRay.x264-USURY 19.01GB



◎译  名 事物的状态/The State of Things
◎片  名 Der Stand der Dinge
◎年  代 1982
◎产  地 荷兰,英国,西德,法国,西班牙,葡萄牙,美国
◎类  别 剧情
◎语  言 英语,法语,葡萄牙语
◎上映日期 1982-10-20(法国)
◎豆瓣评分 7.7/10 from 1406 users
◎豆瓣链接 https://movie.douban.com/subject/1306625/
◎片  长 121分钟
◎导  演 维姆·文德斯 Wim Wenders
◎编  剧 罗伯特·克拉莫 Robert Kramer / 维姆·文德斯 Wim Wenders
◎主  演 Isabelle Weingarten Isabelle Weingarten
      丽贝卡·保利 Rebecca Pauly
      杰弗里·凯里 Geoffrey Carey
      卡米拉·莫拉 Camila Mora
      帕特里克·波查 Patrick Bauchau
      Paul Getty Jr. Paul Getty Jr.
      维娃 Viva
      塞缪尔·富勒 Samuel Fuller
      Artur Semedo Artur Semedo
      罗伯特·克拉莫 Robert Kramer
      艾伦·加菲尔德 Allen Garfield
      罗杰·科曼 Roger Corman
      Adelaide Jo?o Adelaide Jo?o
      维姆·文德斯 Wim Wenders

◎标  签 德国 | 维姆·文德斯 | WimWenders | 1982 | 文德斯 | 德国电影 | Wim_Wenders | 1980s

◎简  介

  故事发生在葡萄牙的海边,一个电影剧组正在这里翻拍罗杰·柯曼的名作《世界末日》,新版本的电影在拍摄过程中却遇到了各种困难。导演不知道为何没有了资金来源,电影面临被迫停拍的命运。导演试图联系到在洛衫机的制片人,以便可以对所有人员有一个交代,但是不知为何却找不到人。他费劲心思希望可以改变不得不停拍的命运,然而,世事总不如人所料,他感到十分无奈。该片情节很简单,但是却耐人寻味,整个电影都沉迷在一种神秘的意蕴中。

◎获奖情况

  第39届威尼斯电影节 ?(1982)
  主竞赛单元金狮奖 维姆·文德斯
  费比西奖(国际影评人联盟奖)最佳影片 维姆·文德斯

Video
ID : 1
Format : AVC
Format/Info : Advanced Video Codec
Format profile : [email protected]
Format settings : CABAC / 4 Ref Frames
Format settings, CABAC : Yes
Format settings, Reference frames : 4 frames
Codec ID : V_MPEG4/ISO/AVC
Duration : 2 h 2 min
Bit rate : 18.9 Mb/s
Width : 1 792 pixels
Height : 1 080 pixels
Display aspect ratio : 5:3
Frame rate mode : Constant
Frame rate : 24.000 FPS
Color space : YUV
Chroma subsampling : 4:2:0
Bit depth : 8 bits
Scan type : Progressive
Bits/(Pixel*Frame) : 0.406
Stream size : 16.2 GiB (85%)
Writing library : x264 core 164 r3075 66a5bc1
Encoding settings : cabac=1 / ref=4 / deblock=1:-3:-3 / analyse=0x3:0x133 / me=umh / subme=10 / psy=1 / psy_rd=1.00:0.15 / mixed_ref=1 / me_range=24 / chroma_me=1 / trellis=2 / 8x8dct=1 / cqm=0 / deadzone=21,11 / fast_pskip=1 / chroma_qp_offset=-3 / threads=18 / lookahead_threads=3 / sliced_threads=0 / nr=0 / decimate=1 / interlaced=0 / bluray_compat=0 / constrained_intra=0 / bframes=8 / b_pyramid=2 / b_adapt=2 / b_bias=0 / direct=3 / weightb=1 / open_gop=0 / weightp=2 / keyint=250 / keyint_min=24 / scenecut=40 / intra_refresh=0 / rc_lookahead=60 / rc=crf / mbtree=1 / crf=19.1 / qcomp=0.60 / qpmin=0 / qpmax=69 / qpstep=4 / ip_ratio=1.40 / aq=3:0.50
Language : English
Default : Yes
Forced : No
Color range : Limited
Matrix coefficients : BT.709

Audio
ID : 2
Format : DTS XLL
Format/Info : Digital Theater Systems
Commercial name : DTS-HD Master Audio
Codec ID : A_DTS
Duration : 2 h 2 min
Bit rate mode : Variable
Bit rate : 3 304 kb/s
Channel(s) : 6 channels
Channel layout : C L R Ls Rs LFE
Sampling rate : 48.0 kHz
Frame rate : 93.750 FPS (512 SPF)
Bit depth : 24 bits
Compression mode : Lossless
Stream size : 2.83 GiB (15%)
Language : English
Default : Yes
Forced : No

Text #1
ID : 3
Format : UTF-8
Codec ID : S_TEXT/UTF8
Codec ID/Info : UTF-8 Plain Text
Duration : 1 h 15 min
Bit rate : 2 b/s
Count of elements : 50
Stream size : 1.40 KiB (0%)
Title : English forced
Language : English
Default : Yes
Forced : Yes

Text #2
ID : 4
Format : UTF-8
Codec ID : S_TEXT/UTF8
Codec ID/Info : UTF-8 Plain Text
Duration : 1 h 58 min
Bit rate : 42 b/s
Count of elements : 953
Stream size : 37.0 KiB (0%)
Title : German
Language : German
Default : No
Forced : No

Text #3
ID : 5
Format : PGS
Muxing mode : zlib
Codec ID : S_HDMV/PGS
Codec ID/Info : Picture based subtitle format used on BDs/HD-DVDs
Duration : 1 h 58 min
Bit rate : 8 514 b/s
Count of elements : 1906
Stream size : 7.21 MiB (0%)
Title : German
Language : German
Default : No
Forced : No

Menu
00:00:00.000 : en:00:00:00.000
00:10:14.417 : en:00:10:14.417
00:20:14.625 : en:00:20:14.625
00:29:47.458 : en:00:29:47.458
00:40:02.583 : en:00:40:02.583
00:50:50.583 : en:00:50:50.583
01:01:29.458 : en:01:01:29.458
01:12:38.250 : en:01:12:38.250
01:20:38.000 : en:01:20:38.000
01:30:34.208 : en:01:30:34.208
01:40:01.500 : en:01:40:01.500
01:53:15.083 : en:01:53:15.083





1 个附件 售价 大小 下载 时间

The.State.of.Things.1982.1080p.BluRay.x264-USURY.torrent 0 金币 24.50K 392 次 1月前

#1楼
发帖时间:2021-11-28 20:19:51   |   回复数:1
popeye69
一派掌门
谢谢楼主分享。
1月前 #2楼
游客组