travismk
一代宗师

[更 早] [欧美] [剧情] [BD-1080P] 大流氓 Baadasssss.2003.1080p.BluRay.x264.DD5.1-HANDJOB 8.48GB

-->

帖子完整标题:大流氓 Baadasssss.2003.1080p.BluRay.x264.DD5.1-HANDJOB 8.48GB



◎译  名 大流氓/Baadasssss!
◎片  名 How to Get the Man's Foot Outta Your Ass
◎年  代 2004
◎产  地 美国
◎类  别 剧情
◎语  言 英语
◎上映日期 2003-09-07(多伦多国际电影节) / 2004-05-28
◎豆瓣评分 /10 from 0 users
◎豆瓣链接 https://movie.douban.com/subject/1769407/
◎导  演 马里奥·范·皮布尔斯 Mario Van Peebles
◎编  剧 马里奥·范·皮布尔斯 Mario Van Peebles / 丹尼斯·哈格蒂 Dennis Haggerty / 马文·范·皮伯斯 Melvin Van Peebles
◎主  演 马里奥·范·皮布尔斯 Mario Van Peebles
      乔伊·布赖恩特 Joy Bryant
      TK·卡特 T.K. Carter
      唐·多德 Don Dowe
      卡哈利·凯恩 Khalil Kain
      凯斯·戴蒙德 Keith Diamond
      兰-莱瑟 Len Lesser
      保罗·罗德里奇斯 Paul Rodriguez
      David Alan Smith David Alan Smith
      Bridget Avildsen Bridget Avildsen
      内森·威瑟林顿 Nathan Wetherington
      曼德拉·范·皮布尔斯 Mandela Van Peebles
       Michele Hill
      Megan Van Peebles Megan Van Peebles
      Jazsmin Lewis Jazsmin Lewis
      Joseph Culp Joseph Culp
      泰瑞·克鲁斯 Terry Crews
      Pamela Gordon Pamela Gordon
      约翰·辛格顿 John Singleton
      罗伯特·皮特斯 Robert Peters
      大卫·艾兰·格里尔 David Alan Grier
      绍尔·鲁宾内克 Saul Rubinek
      科里奥·托马斯 Khleo Thomas
      格伦·普拉默 Glenn Plummer
      卫斯理·乔纳森 Wesley Jonathan
      彭妮·贝·布里奇斯 Penny Bae Bridges
      琼·布莱尔 Joan Blair
      萨莉·斯特拉瑟斯 Sally Struthers
      克里麦·威斯特博克 Karimah Westbrook
      亚当·威斯特 Adam West
      文森特·斯卡维利 Vincent Schiavelli
      尼娅·朗 Nia Long
      奥西·戴维斯 Ossie Davis
      雷恩·威尔森 Rainn Wilson

◎标  签 美国 | 传记 | 美国电影 | Mario_Van_Peebles | 黑人 | 喜剧 | MarioVanPeebles | 种族

◎简  介

  Mario Van Peebles导演的最新电影《大流氓》,是一部向1971年他父亲Melvin Van Peebles拍摄的《Sweet Sweetback''''s Baadasssss Song》致敬的电影。影片除了对1971年电影拍摄的纪录片部分,还包括大量Melvin Van Peebles的生平介绍。Melvin Van Peebles是早期黑人电影的先驱领军人物,集制片、演员、编剧、导演于一身,从60年代开始就一直从事这电影的创作和宣传工作,《Sweet Sweetback''''s Baadasssss Song》就是他的代表作以下。Mario Van Peebles身为Mario Van Peebles之子做到了子承父业,在当今电影界也颇具盛名,知名作品有著名黑人电影《New Jack City》和《Panther》,作为一名导演他还参与过很多影片的演出,其参与演出的电影多达30余部,真可谓是虎父无犬子……

Video
ID : 1
Format : AVC
Format/Info : Advanced Video Codec
Format profile : [email protected]
Format settings : CABAC / 4 Ref Frames
Format settings, CABAC : Yes
Format settings, Reference frames : 4 frames
Codec ID : V_MPEG4/ISO/AVC
Duration : 1 h 49 min
Bit rate : 10.4 Mb/s
Width : 1 920 pixels
Height : 1 080 pixels
Display aspect ratio : 16:9
Frame rate mode : Constant
Frame rate : 23.976 (24000/1001/189150) FPS
Color space : YUV
Chroma subsampling : 4:2:0
Bit depth : 8 bits
Scan type : Progressive
Bits/(Pixel*Frame) : 0.209
Stream size : 7.93 GiB (94%)
Writing library : x264 core 157 r2935 545de2f
Encoding settings : cabac=1 / ref=4 / deblock=1:-3:-3 / analyse=0x3:0x133 / me=umh / subme=11 / psy=1 / psy_rd=1.00:0.00 / mixed_ref=1 / me_range=32 / chroma_me=1 / trellis=2 / 8x8dct=1 / cqm=0 / deadzone=21,11 / fast_pskip=0 / chroma_qp_offset=-2 / threads=18 / lookahead_threads=4 / sliced_threads=0 / nr=0 / decimate=0 / interlaced=0 / bluray_compat=0 / constrained_intra=0 / bframes=16 / b_pyramid=2 / b_adapt=2 / b_bias=0 / direct=3 / weightb=1 / open_gop=0 / weightp=2 / keyint=240 / keyint_min=24 / scenecut=40 / intra_refresh=0 / rc_lookahead=60 / rc=crf / mbtree=0 / crf=20.5 / qcomp=0.60 / qpmin=0 / qpmax=69 / qpstep=4 / vbv_maxrate=62500 / vbv_bufsize=78125 / crf_max=0.0 / nal_hrd=none / filler=0 / ip_ratio=1.40 / pb_ratio=1.30 / aq=2:1.00
Default : Yes
Forced : No
Color range : Limited
Color primaries : BT.709
Transfer characteristics : BT.709
Matrix coefficients : BT.709

Audio #1
ID : 2
Format : AC-3
Format/Info : Audio Coding 3
Commercial name : Dolby Digital
Codec ID : A_AC3
Duration : 1 h 49 min
Bit rate mode : Constant
Bit rate : 640 kb/s
Channel(s) : 6 channels
Channel layout : L R C LFE Ls Rs
Sampling rate : 48.0 kHz
Frame rate : 31.250 FPS (1536 SPF)
Compression mode : Lossy
Stream size : 499 MiB (6%)
Language : English
Service kind : Complete Main
Default : Yes
Forced : No

Audio #2
ID : 3
Format : AAC LC
Format/Info : Advanced Audio Codec Low Complexity
Codec ID : A_AAC-2
Duration : 1 h 49 min
Bit rate : 76.9 kb/s
Channel(s) : 2 channels
Channel layout : L R
Sampling rate : 48.0 kHz
Frame rate : 46.875 FPS (1024 SPF)
Compression mode : Lossy
Stream size : 60.0 MiB (1%)
Title : Commentary by Melvin Van Peebles and Mario Van Peebles
Language : English
Default : No
Forced : No

Text #1
ID : 4
Format : UTF-8
Codec ID : S_TEXT/UTF8
Codec ID/Info : UTF-8 Plain Text
Duration : 1 h 48 min
Bit rate : 94 b/s
Count of elements : 1902
Stream size : 74.9 KiB (0%)
Language : English
Default : No
Forced : No

Text #2
ID : 5
Format : UTF-8
Codec ID : S_TEXT/UTF8
Codec ID/Info : UTF-8 Plain Text
Duration : 1 h 48 min
Bit rate : 100 b/s
Count of elements : 2000
Stream size : 79.9 KiB (0%)
Title : Hard of hearing
Language : English
Default : No
Forced : No





1 个附件 售价 大小 下载 时间

Baadasssss.2003.1080p.BluRay.x264.DD5.1-HANDJOB.torrent 0 金币 21.86K 539 次 1月前

#1楼
发帖时间:2021-11-28 16:57:24   |   回复数:1
popeye69
一派掌门
谢谢楼主分享。
1月前 #2楼
游客组