travismk
一代宗师

[更 早] [欧美] [剧情] [WEB-1080P] 致埃文·汉森/亲爱的埃文·汉森 Dear.Evan.Hansen.2021.1080p.WEBRip.DD5.1.x264-NOGRP 6.66GB

-->

帖子完整标题:致埃文·汉森/亲爱的埃文·汉森 Dear.Evan.Hansen.2021.1080p.WEBRip.DD5.1.x264-NOGRP 6.66GB



◎译  名 致埃文·汉森/亲爱的埃文·汉森
◎片  名 Dear Evan Hansen
◎年  代 2021
◎产  地 美国
◎类  别 剧情 / 歌舞
◎语  言 英语
◎上映日期 2021-09-09(多伦多电影节) / 2021-09-24(美国)
◎豆瓣评分 6.8/10 from 1216 users
◎豆瓣链接 https://movie.douban.com/subject/30391140/
◎片  长 137分钟
◎导  演 斯蒂芬·卓博斯基 Stephen Chbosky
◎编  剧 史蒂文·莱文森 Steven Levenson / 本吉·帕塞克 Benj Pasek / 贾斯廷·保罗 Justin Paul
◎主  演 本·普拉特 Ben Platt
      朱丽安·摩尔 Julianne Moore
      凯特琳·德弗 Kaitlyn Dever
      艾米·亚当斯 Amy Adams
      丹尼·皮诺 Danny Pino
      科尔顿·瑞安 Colton Ryan
      阿曼德拉·斯坦伯格 Amandla Stenberg
      尼克·多达尼 Nik Dodani
      艾萨克·鲍威尔 Isaac Powell
      金·罗森 Kim Rosen

◎标  签 音乐剧 | 百老汇 | 青春 | 美国 | BenPlatt | 托尼奖 | 电影 | DEH

◎简  介

  聚焦青少年自杀、心理疾病等问题,讲述一个深受社交恐惧折磨的高中生编造故事,试图接近一个已自杀的同学的家庭。对“局外人”、心理创伤和人性的探讨细腻、私人,触动心灵。

Video
ID : 1
Format : AVC
Format/Info : Advanced Video Codec
Format profile : [email protected]
Format settings : CABAC / 5 Ref Frames
Format settings, CABAC : Yes
Format settings, Reference frames : 5 frames
Codec ID : V_MPEG4/ISO/AVC
Duration : 2 h 17 min
Bit rate : 6 564 kb/s
Width : 1 920 pixels
Height : 802 pixels
Display aspect ratio : 2.40:1
Frame rate mode : Constant
Frame rate : 23.976 (24000/1001/189150) FPS
Color space : YUV
Chroma subsampling : 4:2:0
Bit depth : 8 bits
Scan type : Progressive
Bits/(Pixel*Frame) : 0.178
Stream size : 6.29 GiB (94%)
Language : English
Default : Yes
Forced : No
Color range : Limited
Color primaries : BT.709
Transfer characteristics : BT.709
Matrix coefficients : BT.709

Audio
ID : 2
Format : AC-3
Format/Info : Audio Coding 3
Commercial name : Dolby Digital
Codec ID : A_AC3
Duration : 2 h 17 min
Bit rate mode : Constant
Bit rate : 384 kb/s
Channel(s) : 6 channels
Channel layout : L R C LFE Ls Rs
Sampling rate : 48.0 kHz
Frame rate : 31.250 FPS (1536 SPF)
Compression mode : Lossy
Stream size : 377 MiB (6%)
Title : English
Language : English
Service kind : Complete Main
Default : No
Forced : No

Text
ID : 3
Format : UTF-8
Codec ID : S_TEXT/UTF8
Codec ID/Info : UTF-8 Plain Text
Duration : 2 h 16 min
Bit rate : 70 b/s
Count of elements : 2225
Stream size : 70.7 KiB (0%)
Language : English
Default : Yes
Forced : No





1 个附件 售价 大小 下载 时间

Dear.Evan.Hansen.2021.1080p.WEBRip.DD5.1.x264-NOGRP.torrent 0 金币 17.28K 1596 次 2天前

#1楼
发帖时间:2021-10-14 16:31:15   |   回复数:0
游客组